<?xml version="1.0" standalone="no"?>
<!DOCTYPE svg PUBLIC "-//W3C//DTD SVG 1.1//EN" "http://www.w3.org/Graphics/SVG/1.1/DTD/svg11.dtd" >
<svg xmlns="http://www.w3.org/2000/svg">
<metadata>Generated by IcoMoon</metadata>
<defs>
<font id="eicons" horiz-adv-x="1024">
<font-face units-per-em="1024" ascent="870.850439882698" descent="-153.14956011730206" />
<missing-glyph horiz-adv-x="1024" />
<glyph unicode="&#x20;" horiz-adv-x="0" d="" />
<glyph unicode="&#xe800;" glyph-name="elementor" d="M0 857.994h205v-1025.001h-205v1025.001zM410 37.993h615.001v-205h-615.001v205zM410 447.994h615.001v-205h-615.001v205zM410 857.994h615.001v-205h-615.001v205z" />
<glyph unicode="&#xe801;" glyph-name="elementor-square" d="M973.751 857.994h-922.501c-28.7 0-51.25-22.55-51.25-51.25v-922.501c0-28.7 22.55-51.25 51.25-51.25h922.501c28.7 0 51.25 22.55 51.25 51.25v922.501c0 28.7-22.55 51.25-51.25 51.25zM376.175 117.943h-91.225v455.1h91.225v-455.1zM740.051 117.943h-272.65v91.225h272.65v-91.225zM740.051 300.394h-272.65v90.2h272.65v-90.2zM740.051 481.819h-272.65v91.225h272.65v-91.225z" />
<glyph unicode="&#xe802;" glyph-name="pojome" d="M512.5-167.007c-1.327-0.013-2.896-0.021-4.466-0.021-67.961 0-132.663 13.954-191.397 39.152l-9.137 4.943v278.8l32.8-22.55c23.668-16.934 50.649-32.053 79.253-44.076 29.36-9.613 59.979-14.565 91.754-14.565 38.384 0 75.081 7.226 108.805 20.391 32.532 14.586 62.079 34.941 87.16 59.796 23.857 24.107 43.774 52.216 58.632 83.21 13.128 33.373 20.274 69.877 20.274 108.052 0 0.497-0.001 0.996-0.004 1.492 0.001 0.186 0.002 0.497 0.002 0.809 0 37.652-7.148 73.634-20.162 106.663-14.95 30.871-34.868 58.983-58.787 83.124-24.202 25.804-54.028 46.076-87.542 58.887l-1.61 0.541c-27.568 13.76-60.054 21.814-94.42 21.814-3.924 0-7.823-0.105-11.695-0.312-3.121 0.241-7.401 0.365-11.711 0.365-33.892 0-65.989-7.687-94.643-21.412-33.777-12.853-63.59-33.111-87.743-58.76-23.268-23.912-41.982-52.165-54.827-83.447-14.88-32.708-23.186-68.923-23.186-107.080 0-0.086 0-0.171 0-0.257v-439.712l-34.85 26.65c-19.971 15.32-37.687 30.761-54.396 47.22-92.934 90.206-150.649 216.393-150.649 356.060 0 2.363 0.017 4.723 0.049 7.077-0.039 1.862-0.060 4.481-0.060 7.105 0 140.080 57.699 266.682 150.628 357.339 90.889 91.303 216.532 147.743 355.358 147.743 2.31 0 4.617-0.016 6.919-0.047 1.73 0.035 4.183 0.053 6.641 0.053 138.694 0 264.205-56.448 354.809-147.623 93.057-90.782 150.756-217.384 150.756-357.464 0-2.624-0.020-5.242-0.061-7.857 0.026-1.302 0.038-3.306 0.038-5.313 0-139.66-57.71-265.843-150.586-356-90.397-93.116-216.58-150.826-356.24-150.826-2.007 0-4.011 0.012-6.012 0.036zM349.525-94.232c47.496-18.821 102.523-29.734 160.098-29.734 1.012 0 2.022 0.003 3.032 0.010 1.83-0.032 4.173-0.050 6.521-0.050 127.565 0 242.842 52.602 325.327 137.299 84.897 82.84 137.49 198.253 137.49 325.95 0 2.197-0.016 4.391-0.047 6.581 0.048 2.050 0.074 4.859 0.074 7.672 0 128.117-52.584 243.951-137.347 327.099-83.053 82.474-197.382 133.401-323.606 133.401-3.012 0-6.018-0.029-9.017-0.087-2.101 0.058-5.106 0.087-8.119 0.087-126.223 0-240.553-50.928-323.559-133.356-84.81-83.193-137.393-199.027-137.393-327.144 0-2.815 0.025-5.622 0.076-8.425-0.025-1.144-0.036-2.994-0.036-4.845 0-128.193 53.003-244.007 138.29-326.723l15.491-15.487v350.55c-0.001 0.238-0.001 0.52-0.001 0.801 0 43.864 9.435 85.523 26.388 123.059 15.977 36.083 38.79 68.417 66.794 95.399 27.946 30.16 62.204 53.883 100.734 69.141 33.643 15.697 70.911 24.483 110.231 24.483 4.063 0 8.105-0.094 12.123-0.279 3.821 0.288 8.953 0.44 14.12 0.44 38.515 0 75.052-8.463 107.854-23.631 38.431-15.74 72.324-39.765 99.68-69.84 27.812-27.801 50.819-59.981 67.969-95.516 15.684-38.195 24.329-80.096 24.481-123.997 0-0.18 0-0.32 0-0.46 0-44.865-8.655-87.708-24.389-126.949-16.982-36.516-40.036-69.739-67.92-98.212-28.454-28.485-62.069-51.927-99.302-68.783-38.677-15.598-81.073-24.151-125.467-24.151-36.863 0-72.348 5.897-105.564 16.798-20.030 9.837-38.844 20.426-56.808 32.203l1.801-172.283zM512.5 143.568c-0.346-0.002-0.757-0.003-1.167-0.003-27.518 0-53.896 4.885-78.312 13.835-23.808 10.699-45.531 25.529-64.065 43.612-17.178 18.403-32.169 39.28-44.284 61.928-11.789 25.516-18.213 53.517-18.213 83.019 0 0.918 0.006 1.834 0.019 2.749 0.142 28.511 6.549 55.628 17.917 79.964 21.57 47.354 59.624 85.409 106.809 106.922 24.81 9.453 51.939 14.608 80.272 14.608s55.462-5.155 80.501-14.578c23.805-10.708 45.525-25.535 64.073-43.602 19.895-17.726 35.35-40.108 44.688-65.449 10.725-23.749 16.766-50.198 16.766-78.058 0-0.341-0.001-0.683-0.003-1.024 0.001-0.125 0.001-0.334 0.001-0.544 0-29.488-6.418-57.476-17.935-82.645-10.509-24.008-25.738-45.476-44.502-63.251-18.245-18.47-39.626-33.62-63.323-44.625-23.372-8.376-48.78-12.895-75.243-12.895-1.405 0-2.808 0.013-4.208 0.038zM512.5 508.469c-0.012 0-0.027 0-0.041 0-22.795 0-44.626-4.134-64.781-11.693-37.563-17.911-67.8-49.144-84.398-87.639-8.843-19.178-13.752-40.324-13.753-62.617-0.005-0.45-0.007-0.983-0.007-1.515 0-22.826 4.909-44.506 13.728-64.043 10.166-19.332 22.44-36.84 36.687-52.523 14.288-13.975 31.248-25.684 49.968-34.197 19.738-7.055 41.235-10.873 63.624-10.873s43.886 3.818 63.875 10.839c18.076 8.624 34.689 20.319 48.882 34.444 14.983 14.165 27.094 31.202 35.479 50.251 8.818 19.686 13.728 41.52 13.728 64.499 0 0.736-0.005 1.47-0.015 2.204 0 22.183-4.91 43.329-13.706 62.308-6.983 19.512-18.952 36.761-34.327 50.21-15.128 15.193-32.779 27.594-52.331 36.565-19.229 8.009-40.228 12.815-62.227 13.768z" />
<glyph unicode="&#xe803;" glyph-name="plus" d="M811.801 302.444h-256.25v-256.25h-86.1v256.25h-256.25v86.1h256.25v256.25h86.1v-256.25h256.25v-86.1z" />
<glyph unicode="&#xe804;" glyph-name="menu" d="M128.125 89.243h768.751v85.075h-768.751v-85.075zM128.125 302.444h768.751v86.1h-768.751v-86.1zM128.125 601.744v-85.075h768.751v85.075h-768.751z" />
<glyph unicode="&#xe805;" glyph-name="apps" d="M171.175 516.669h170.15v170.15h-170.15v-170.15zM427.425 4.168h170.15v170.15h-170.15v-170.15zM171.175 4.168h170.15v170.15h-170.15v-170.15zM171.175 260.419h170.15v170.15h-170.15v-170.15zM427.425 260.419h170.15v170.15h-170.15v-170.15zM683.676 686.819v-170.15h170.15v170.15h-170.15zM427.425 516.669h170.15v170.15h-170.15v-170.15zM683.676 260.419h170.15v170.15h-170.15v-170.15zM683.676 4.168h170.15v170.15h-170.15v-170.15z" />
<glyph unicode="&#xe806;" glyph-name="accordion" d="M961.451 601.744h-896.876c-35.875 0-64.575-28.7-64.575-63.55v-384.375c0-35.875 28.7-64.575 64.575-64.575h896.876c34.85 0 63.55 28.7 63.55 64.575v384.375c0 34.85-28.7 63.55-63.55 63.55zM981.951 153.818c0-12.3-9.225-21.525-20.5-21.525h-896.876c-12.3 0-21.525 9.225-21.525 21.525v384.375c0 11.275 9.225 20.5 21.525 20.5h896.876c11.275 0 20.5-9.225 20.5-20.5v-384.375zM106.6 686.819h811.801c11.275 0 21.525 10.25 21.525 21.525s-10.25 21.525-21.525 21.525h-811.801c-11.275 0-21.525-9.225-21.525-21.525s10.25-21.525 21.525-21.525zM106.6 814.944h811.801c11.275 0 21.525 10.25 21.525 21.525s-10.25 21.525-21.525 21.525h-811.801c-11.275 0-21.525-9.225-21.525-21.525s10.25-21.525 21.525-21.525zM918.401-123.957h-811.801c-11.275 0-21.525-10.25-21.525-21.525s10.25-21.525 21.525-21.525h811.801c11.275 0 21.525 9.225 21.525 21.525s-10.25 21.525-21.525 21.525zM918.401 4.168h-811.801c-11.275 0-21.525-10.25-21.525-21.525s10.25-21.525 21.525-21.525h811.801c11.275 0 21.525 9.225 21.525 21.525s-10.25 21.525-21.525 21.525z" />
<glyph unicode="&#xe807;" glyph-name="alert" d="M512.5 836.469c-270.6 0-490.975-220.375-490.975-490.975s220.375-490.975 490.975-490.975 490.975 220.375 490.975 490.975-220.375 490.975-490.975 490.975zM512.5-103.457c-247.025 0-447.925 201.925-447.925 448.95s200.9 448.95 447.925 448.95 448.95-201.925 448.95-448.95-201.925-448.95-448.95-448.95zM512.5 452.094c-34.85 0-63.55-28.7-63.55-63.55v-256.25c0-35.875 28.7-64.575 63.55-64.575s64.575 28.7 64.575 64.575v256.25c0 34.85-28.7 63.55-64.575 63.55zM534.026 132.293c0-12.3-9.225-21.525-21.525-21.525s-21.525 9.225-21.525 21.525v256.25c0 11.275 10.25 21.525 21.525 21.525s21.525-10.25 21.525-21.525v-256.25zM512.5 623.269c-34.85 0-63.55-28.7-63.55-64.575s28.7-63.55 63.55-63.55 64.575 28.7 64.575 63.55-28.7 64.575-64.575 64.575zM512.5 538.194c-11.275 0-21.525 9.225-21.525 20.5s10.25 21.525 21.525 21.525 21.525-9.225 21.525-21.525-9.225-20.5-21.525-20.5z" />
<glyph unicode="&#xe808;" glyph-name="animation-text" d="M169.125 545.369c-6.15 16.4-33.825 16.4-39.975 0l-128.125-341.325c-4.1-11.275 2.050-23.575 13.325-27.675 10.25-4.1 22.55 1.025 26.65 12.3l43.050 114.8c1.025 0 1.025-1.025 1.025-1.025h128.125c1.025 0 1.025 1.025 1.025 1.025l43.050-114.8c4.1-8.2 11.275-14.35 20.5-14.35 2.050 0 5.125 1.025 7.175 2.050 11.275 4.1 16.4 16.4 12.3 27.675l-128.125 341.325zM100.45 345.494l49.2 131.2 49.2-131.2h-98.4zM705.201 430.569c34.85 0 63.55-28.7 63.55-63.55 0-12.3 9.225-21.525 21.525-21.525s21.525 9.225 21.525 21.525c0 58.425-48.175 106.6-106.6 106.6s-107.625-48.175-107.625-106.6v-85.075c0-59.45 48.175-107.625 107.625-107.625s106.6 48.175 106.6 107.625c0 11.275-10.25 20.5-21.525 20.5s-21.525-9.225-21.525-20.5c0-35.875-28.7-64.575-63.55-64.575s-64.575 28.7-64.575 64.575v85.075c0 34.85 28.7 63.55 64.575 63.55zM448.95 473.619c-24.6 0-46.125-8.2-64.575-21.525v86.1c0 11.275-9.225 20.5-21.525 20.5s-21.525-9.225-21.525-20.5v-342.35c0-11.275 10.25-21.525 21.525-21.525s21.525 10.25 21.525 21.525v1.025c18.45-13.325 39.975-22.55 64.575-22.55 58.425 0 106.6 48.175 106.6 107.625v85.075c0 58.425-48.175 106.6-106.6 106.6zM512.5 281.944c0-35.875-28.7-64.575-63.55-64.575s-64.575 28.7-64.575 64.575v85.075c0 34.85 28.7 63.55 64.575 63.55s63.55-28.7 63.55-63.55v-85.075zM1021.926 36.968c-1.025 2.050-27.675 42.025-82 50.225v215.25h21.525c11.275 0 20.5 10.25 20.5 21.525s-9.225 21.525-20.5 21.525h-21.525v258.3c54.325 9.225 80.975 49.2 82 50.225 6.15 10.25 3.075 23.575-7.175 29.725-9.225 6.15-22.55 3.075-28.7-6.15-1.025-2.050-22.55-32.8-67.65-32.8s-66.625 30.75-67.65 32.8c-6.15 9.225-19.475 12.3-28.7 6.15-10.25-6.15-13.325-19.475-7.175-28.7 1.025-2.050 26.65-42.025 82-51.25v-258.3h-21.525c-11.275 0-21.525-9.225-21.525-21.525s10.25-21.525 21.525-21.525h21.525v-215.25c-55.35-8.2-80.975-49.2-82-50.225-6.15-10.25-3.075-23.575 6.15-29.725 10.25-6.15 23.575-3.075 29.725 6.15 1.025 2.050 22.55 32.8 67.65 32.8s66.625-30.75 67.65-31.775c4.1-7.175 10.25-10.25 17.425-10.25 4.1 0 8.2 1.025 11.275 3.075 10.25 6.15 13.325 19.475 7.175 29.725z" />
<glyph unicode="&#xe809;" glyph-name="animation" d="M997.326 360.869l-213.2 213.2c-2.050 2.050-4.1 4.1-7.175 5.125-1.025 0-2.050 0-3.075 0-2.050 1.025-3.075 1.025-5.125 1.025-1.025 0-2.050 0-3.075 0-2.050-1.025-3.075-1.025-5.125-1.025-2.050-1.025-5.125-3.075-7.175-5.125v0l-213.2-213.2c-8.2-8.2-8.2-22.55 0-30.75l213.2-213.2c1.025-1.025 2.050-1.025 3.075-2.050s2.050-2.050 4.1-2.050c3.075-2.050 5.125-2.050 8.2-2.050s5.125 0 8.2 2.050c2.050 0 4.1 2.050 6.15 4.1 0 0 1.025 0 1.025 0l213.2 213.2c8.2 8.2 8.2 22.55 0 30.75zM649.851 281.944l97.375 97.375v-67.65l-63.55-63.55-33.825 33.825zM747.226 251.194v-67.65l-33.825 33.825 33.825 33.825zM747.226 507.444v-67.65l-128.125-128.125-33.825 33.825 161.95 161.95zM790.276 183.543v323.9l161.95-161.95-161.95-161.95zM356.7 488.994c-8.2 8.2-21.525 8.2-29.725 0l-128.125-128.125c-8.2-8.2-8.2-22.55 0-30.75l128.125-128.125c4.1-4.1 9.225-6.15 14.35-6.15 6.15 0 11.275 2.050 15.375 6.15 8.2 8.2 8.2 22.55 0 30.75l-112.75 112.75 112.75 112.75c8.2 8.2 8.2 22.55 0 30.75zM415.125 345.494l154.775 155.8c9.225 8.2 9.225 21.525 0 29.725s-21.525 9.225-29.725 0l-171.175-170.15c-8.2-8.2-8.2-22.55 0-30.75l171.175-170.15c4.1-4.1 9.225-6.15 15.375-6.15s10.25 2.050 14.35 6.15c9.225 8.2 9.225 21.525 0 29.725l-154.775 155.8zM143.5 445.944c-8.2 8.2-22.55 8.2-30.75 0l-85.075-85.075c-8.2-8.2-8.2-22.55 0-30.75l85.075-85.075c4.1-4.1 10.25-6.15 15.375-6.15s11.275 2.050 15.375 6.15c8.2 8.2 8.2 21.525 0 29.725l-70.725 70.725 70.725 70.725c8.2 8.2 8.2 21.525 0 29.725z" />
<glyph unicode="&#xe810;" glyph-name="banner" d="M1023.976 374.194c-2.050 6.15-7.175 11.275-13.325 13.325l-115.825 37.925 22.55 107.625c2.050 6.15 1.025 11.275-3.075 16.4-3.075 5.125-7.175 8.2-13.325 9.225-9.225 2.050-225.5 43.050-388.475 43.050s-379.25-41-388.475-43.050c-5.125-1.025-10.25-4.1-13.325-9.225s-4.1-10.25-3.075-16.4l22.55-107.625-115.825-37.925c-6.15-2.050-10.25-7.175-13.325-13.325-2.050-6.15-1.025-12.3 2.050-18.45l60.475-100.45-20.5-141.45c-1.025-7.175 2.050-15.375 7.175-19.475 4.1-3.075 9.225-5.125 14.35-5.125 2.050 0 4.1 0 7.175 1.025 1.025 1.025 173.225 63.55 249.075 63.55 6.15 0 12.3 3.075 16.4 8.2s5.125 11.275 4.1 18.45l-16.4 63.55c55.35 8.2 120.95 16.4 187.575 16.4s132.225-8.2 187.575-16.4l-16.4-64.575c-1.025-6.15 0-12.3 4.1-17.425s10.25-8.2 17.425-8.2c74.825 0 247.025-62.525 248.050-63.55 3.075-1.025 5.125-1.025 8.2-1.025 4.1 0 9.225 2.050 13.325 5.125 5.125 4.1 8.2 12.3 7.175 19.475l-20.5 141.45 60.475 100.45c3.075 6.15 4.1 12.3 2.050 18.45zM293.15 194.819c-63.55-7.175-154.775-35.875-202.95-52.275l16.4 114.8c1.025 5.125 0 9.225-3.075 14.35l-50.225 83.025 86.1 28.7 31.775-148.625c1.025-6.15 5.125-11.275 10.25-14.35 3.075-2.050 7.175-3.075 11.275-3.075 1.025 0 3.075 0 5.125 1.025 1.025 0 33.825 9.225 85.075 18.45l10.25-42.025zM512.5 302.444c-128.125 0-254.2-25.625-304.425-37.925l-54.325 256.25c59.45 10.25 228.575 37.925 358.75 37.925s299.3-27.675 358.75-37.925l-54.325-256.25c-50.225 12.3-176.3 37.925-304.425 37.925zM921.476 270.669c-3.075-4.1-4.1-8.2-3.075-13.325l16.4-114.8c-48.175 16.4-139.4 45.1-202.95 52.275l10.25 42.025c51.25-9.225 84.050-18.45 85.075-18.45 6.15-2.050 12.3-1.025 16.4 2.050 5.125 3.075 9.225 8.2 10.25 14.35l31.775 148.625 86.1-28.7-50.225-84.050z" />
<glyph unicode="&#xe811;" glyph-name="blockquote" d="M405.9 686.819h-299.3c-34.85 0-63.55-28.7-63.55-63.55v-299.3c0-34.85 28.7-63.55 63.55-63.55h106.6v-70.725c0-41-22.55-76.875-58.425-95.325l-100.45-50.225c-8.2-4.1-13.325-14.35-11.275-23.575 2.050-10.25 11.275-16.4 21.525-16.4h144.525c101.475 0 190.65 64.575 222.425 159.9 25.625 75.85 37.925 153.75 37.925 233.7v225.5c0 34.85-28.7 63.55-63.55 63.55zM427.425 397.769c0-74.825-12.3-148.625-35.875-219.35-26.65-78.925-99.425-132.225-182.45-132.225h-54.325l18.45 10.25c51.25 25.625 83.025 76.875 83.025 133.25v92.25c0 11.275-9.225 20.5-21.525 20.5h-128.125c-11.275 0-21.525 10.25-21.525 21.525v299.3c0 11.275 10.25 21.525 21.525 21.525h299.3c11.275 0 21.525-10.25 21.525-21.525 0 0 0-225.5 0-225.5zM918.401 686.819h-299.3c-34.85 0-63.55-28.7-63.55-63.55v-299.3c0-34.85 28.7-63.55 63.55-63.55h106.6v-70.725c0-41-22.55-76.875-58.425-95.325l-100.45-50.225c-8.2-4.1-13.325-14.35-11.275-23.575 2.050-10.25 11.275-16.4 21.525-16.4h144.525c101.475 0 190.65 64.575 222.425 159.9 25.625 75.85 37.925 153.75 37.925 233.7v225.5c0 34.85-28.7 63.55-63.55 63.55zM939.926 397.769c0-74.825-12.3-148.625-35.875-219.35-26.65-78.925-99.425-132.225-182.45-132.225h-54.325l18.45 10.25c51.25 25.625 83.025 76.875 83.025 133.25v92.25c0 11.275-9.225 20.5-21.525 20.5h-128.125c-11.275 0-21.525 10.25-21.525 21.525v299.3c0 11.275 10.25 21.525 21.525 21.525h299.3c11.275 0 21.525-10.25 21.525-21.525v-225.5z" />
<glyph unicode="&#xe812;" glyph-name="button" d="M462.275 468.494c-6.15 5.125-15.375 7.175-22.55 3.075-8.2-3.075-12.3-11.275-12.3-19.475v-384.375c0-8.2 5.125-16.4 13.325-19.475 7.175-3.075 16.4-1.025 22.55 4.1l64.575 64.575 72.775-144.525c2.050-5.125 7.175-9.225 12.3-10.25 2.050-1.025 4.1-1.025 6.15-1.025 4.1 0 8.2 1.025 11.275 3.075l95.325 55.35c5.125 3.075 8.2 8.2 10.25 13.325 1.025 6.15 0 11.275-3.075 16.4l-75.85 125.050h90.2c9.225 0 17.425 6.15 20.5 14.35s0 17.425-6.15 23.575l-299.3 256.25zM619.101 217.369c-7.175 0-14.35-4.1-18.45-11.275-4.1-6.15-4.1-14.35 0-21.525l85.075-138.375-57.4-33.825-74.825 150.675c-3.075 6.15-9.225 10.25-16.4 11.275-1.025 0-2.050 0-3.075 0-6.15 0-11.275-2.050-15.375-6.15l-49.2-48.175v285.975l220.375-188.6c0 0-70.725 0-70.725 0zM918.401 729.869h-811.801c-58.425 0-106.6-48.175-106.6-106.6v-256.25c0-59.45 48.175-106.6 106.6-106.6h256.25c12.3 0 21.525 9.225 21.525 21.525s-9.225 20.5-21.525 20.5h-256.25c-34.85 0-63.55 28.7-63.55 64.575v256.25c0 34.85 28.7 63.55 63.55 63.55h811.801c34.85 0 63.55-28.7 63.55-63.55v-256.25c0-35.875-28.7-64.575-63.55-64.575h-149.65c-11.275 0-21.525-9.225-21.525-20.5s10.25-21.525 21.525-21.525h149.65c58.425 0 106.6 47.15 106.6 106.6v256.25c0 58.425-48.175 106.6-106.6 106.6z" />
<glyph unicode="&#xe813;" glyph-name="call-to-action" d="M961.451 623.269h-896.876c-35.875 0-64.575-28.7-64.575-64.575v-426.4c0-35.875 28.7-64.575 64.575-64.575h896.876c34.85 0 63.55 28.7 63.55 64.575v426.4c0 35.875-28.7 64.575-63.55 64.575zM981.951 132.293c0-12.3-9.225-21.525-20.5-21.525h-896.876c-12.3 0-21.525 9.225-21.525 21.525v426.4c0 12.3 9.225 21.525 21.525 21.525h896.876c11.275 0 20.5-9.225 20.5-21.525v-426.4zM747.226 495.144c-82 0-149.65-67.65-149.65-149.65s67.65-149.65 149.65-149.65 149.65 67.65 149.65 149.65-66.625 149.65-149.65 149.65zM747.226 238.894c-58.425 0-106.6 48.175-106.6 106.6s48.175 106.6 106.6 106.6 106.6-48.175 106.6-106.6-47.15-106.6-106.6-106.6zM490.975 238.894h-341.325c-12.3 0-21.525-9.225-21.525-21.525s9.225-21.525 21.525-21.525h341.325c12.3 0 21.525 10.25 21.525 21.525s-9.225 21.525-21.525 21.525zM490.975 367.019h-341.325c-12.3 0-21.525-9.225-21.525-21.525s9.225-21.525 21.525-21.525h341.325c12.3 0 21.525 10.25 21.525 21.525s-9.225 21.525-21.525 21.525zM490.975 495.144h-341.325c-12.3 0-21.525-9.225-21.525-21.525s9.225-21.525 21.525-21.525h341.325c12.3 0 21.525 10.25 21.525 21.525s-9.225 21.525-21.525 21.525z" />
<glyph unicode="&#xe814;" glyph-name="captcha" d="M106.6 238.894c-11.275 0-21.525-9.225-21.525-21.525s-9.225-21.525-20.5-21.525-21.525 10.25-21.525 21.525v85.075c0 12.3 9.225 21.525 21.525 21.525s20.5-9.225 20.5-21.525 10.25-20.5 21.525-20.5 21.525 9.225 21.525 20.5c0 35.875-28.7 64.575-63.55 64.575s-64.575-28.7-64.575-64.575v-85.075c0-34.85 28.7-63.55 64.575-63.55s63.55 28.7 63.55 63.55c0 12.3-9.225 21.525-21.525 21.525zM534.026 345.494c11.275 0 21.525-9.225 21.525-21.525s9.225-21.525 21.525-21.525 20.5 10.25 20.5 21.525c0 35.875-28.7 64.575-63.55 64.575s-64.575-28.7-64.575-64.575v-85.075c0-35.875 28.7-64.575 64.575-64.575s63.55 28.7 63.55 64.575c0 11.275-9.225 21.525-20.5 21.525s-21.525-10.25-21.525-21.525-10.25-21.525-21.525-21.525-21.525 9.225-21.525 21.525v85.075c0 12.3 9.225 21.525 21.525 21.525zM1023.976 182.518l-64.575 170.15c-6.15 17.425-33.825 17.425-39.975 0l-63.55-170.15c-4.1-11.275 1.025-23.575 12.3-27.675s23.575 1.025 27.675 12.3l10.25 28.7h66.625l11.275-28.7c3.075-8.2 11.275-13.325 19.475-13.325 3.075 0 5.125 0 8.2 1.025 10.25 4.1 16.4 16.4 12.3 27.675zM922.501 238.894l17.425 46.125 17.425-46.125h-34.85zM233.7 267.594c-6.15 16.4-33.825 16.4-39.975 0l-64.575-171.175c-4.1-10.25 2.050-22.55 13.325-26.65 10.25-4.1 22.55 1.025 26.65 12.3l11.275 28.7h66.625l10.25-28.7c4.1-9.225 11.275-14.35 20.5-14.35 2.050 0 5.125 1.025 7.175 2.050 11.275 4.1 16.4 16.4 12.3 26.65l-63.55 171.175zM196.8 153.818l16.4 45.1 17.425-45.1h-33.825zM362.85 452.094h-42.025c-12.3 0-21.525-9.225-21.525-21.525v-170.15c0-12.3 9.225-21.525 21.525-21.525s20.5 9.225 20.5 21.525v63.55h21.525c35.875 0 64.575 28.7 64.575 64.575s-28.7 63.55-64.575 63.55zM362.85 367.019h-21.525v43.050h21.525c12.3 0 21.525-10.25 21.525-21.525s-9.225-21.525-21.525-21.525zM790.276 281.944c-12.3 0-21.525-10.25-21.525-21.525v-64.575h-85.075v64.575c0 11.275-10.25 21.525-21.525 21.525s-21.525-10.25-21.525-21.525v-171.175c0-11.275 9.225-21.525 21.525-21.525s21.525 10.25 21.525 21.525v64.575h85.075v-64.575c0-11.275 9.225-21.525 21.525-21.525s21.525 10.25 21.525 21.525v171.175c0 11.275-10.25 21.525-21.525 21.525zM469.45 430.569c0-11.275 10.25-20.5 21.525-20.5s21.525 9.225 21.525 20.5v149.65h43.050c11.275 0 21.525 10.25 21.525 21.525s-10.25 21.525-21.525 21.525h-128.125c-12.3 0-21.525-9.225-21.525-21.525s9.225-21.525 21.525-21.525h42.025v-149.65z" />
<glyph unicode="&#xe815;" glyph-name="carousel" d="M100.45 402.894c-8.2 9.225-21.525 9.225-29.725 0l-43.050-42.025c-8.2-8.2-8.2-22.55 0-30.75l43.050-42.025c4.1-4.1 9.225-6.15 14.35-6.15s11.275 2.050 15.375 6.15c8.2 8.2 8.2 21.525 0 29.725l-27.675 27.675 27.675 27.675c8.2 8.2 8.2 21.525 0 29.725zM997.326 360.869l-43.050 42.025c-8.2 9.225-21.525 9.225-29.725 0s-8.2-21.525 0-29.725l27.675-27.675-27.675-27.675c-8.2-8.2-8.2-21.525 0-29.725 4.1-4.1 9.225-6.15 15.375-6.15s10.25 2.050 14.35 6.15l43.050 42.025c8.2 8.2 8.2 22.55 0 30.75zM341.325 430.569h-170.15c-12.3 0-21.525-9.225-21.525-20.5v-128.125c0-12.3 9.225-21.525 21.525-21.525h170.15c12.3 0 21.525 9.225 21.525 21.525v128.125c0 11.275-9.225 20.5-21.525 20.5zM320.825 302.444h-128.125v86.1h128.125v-86.1zM597.576 430.569h-170.15c-12.3 0-21.525-9.225-21.525-20.5v-128.125c0-12.3 9.225-21.525 21.525-21.525h170.15c12.3 0 21.525 9.225 21.525 21.525v128.125c0 11.275-9.225 20.5-21.525 20.5zM577.076 302.444h-128.125v86.1h128.125v-86.1zM853.826 430.569h-170.15c-12.3 0-21.525-9.225-21.525-20.5v-128.125c0-12.3 9.225-21.525 21.525-21.525h170.15c12.3 0 21.525 9.225 21.525 21.525v128.125c0 11.275-9.225 20.5-21.525 20.5zM833.326 302.444h-128.125v86.1h128.125v-86.1z" />
<glyph unicode="&#xe816;" glyph-name="checkbox" d="M234.725 132.293h-170.15c-35.875 0-64.575-28.7-64.575-64.575v-171.175c0-34.85 28.7-63.55 64.575-63.55h170.15c35.875 0 64.575 28.7 64.575 63.55v171.175c0 35.875-28.7 64.575-64.575 64.575zM256.25-103.457c0-11.275-9.225-20.5-21.525-20.5h-170.15c-12.3 0-21.525 9.225-21.525 20.5v171.175c0 12.3 9.225 21.525 21.525 21.525h170.15c12.3 0 21.525-9.225 21.525-21.525v-171.175zM405.9 644.794h597.576c12.3 0 21.525 9.225 21.525 21.525s-9.225 20.5-21.525 20.5h-597.576c-12.3 0-21.525-9.225-21.525-20.5s9.225-21.525 21.525-21.525zM1003.476 345.494h-597.576c-12.3 0-21.525-9.225-21.525-21.525s9.225-21.525 21.525-21.525h597.576c12.3 0 21.525 10.25 21.525 21.525s-9.225 21.525-21.525 21.525zM1003.476 4.168h-597.576c-12.3 0-21.525-10.25-21.525-21.525s9.225-21.525 21.525-21.525h597.576c12.3 0 21.525 9.225 21.525 21.525s-9.225 21.525-21.525 21.525zM302.375 848.769l-30.75-45.1c-10.25 7.175-23.575 11.275-36.9 11.275h-170.15c-35.875 0-64.575-28.7-64.575-63.55v-171.175c0-34.85 28.7-63.55 64.575-63.55h170.15c35.875 0 64.575 28.7 64.575 63.55v171.175c0 5.125-1.025 10.25-2.050 14.35l41 58.425c6.15 10.25 4.1 23.575-6.15 29.725-9.225 7.175-22.55 5.125-29.725-5.125zM256.25 580.219c0-11.275-9.225-21.525-21.525-21.525h-170.15c-12.3 0-21.525 10.25-21.525 21.525v171.175c0 11.275 9.225 21.525 21.525 21.525h170.15c5.125 0 8.2-2.050 12.3-4.1l-78.925-112.75-46.125 46.125c-8.2 8.2-21.525 8.2-30.75 0s-8.2-21.525 0-29.725l64.575-64.575c4.1-4.1 9.225-6.15 15.375-6.15 0 0 1.025 0 2.050 0 6.15 1.025 11.275 4.1 15.375 9.225l67.65 97.375v-128.125zM302.375 507.444l-30.75-45.1c-10.25 7.175-23.575 11.275-36.9 11.275h-170.15c-35.875 0-64.575-28.7-64.575-63.55v-171.175c0-35.875 28.7-64.575 64.575-64.575h170.15c35.875 0 64.575 28.7 64.575 64.575v171.175c0 5.125-1.025 9.225-2.050 14.35l41 58.425c6.15 9.225 4.1 22.55-6.15 29.725-9.225 7.175-22.55 4.1-29.725-5.125zM256.25 238.894c0-12.3-9.225-21.525-21.525-21.525h-170.15c-12.3 0-21.525 9.225-21.525 21.525v171.175c0 11.275 9.225 20.5 21.525 20.5h170.15c5.125 0 8.2-1.025 12.3-3.075l-78.925-112.75-46.125 46.125c-8.2 8.2-21.525 8.2-30.75 0s-8.2-22.55 0-30.75l64.575-63.55c4.1-4.1 9.225-6.15 15.375-6.15 0 0 1.025 0 2.050 0 6.15 0 11.275 4.1 15.375 9.225l67.65 96.35v-127.1z" />
<glyph unicode="&#xe817;" glyph-name="columns" d="M448.95 686.819h-427.425c-12.3 0-21.525-9.225-21.525-20.5s9.225-21.525 21.525-21.525h427.425c11.275 0 20.5 9.225 20.5 21.525s-9.225 20.5-20.5 20.5zM448.95 558.694h-427.425c-12.3 0-21.525-9.225-21.525-20.5s9.225-21.525 21.525-21.525h427.425c11.275 0 20.5 9.225 20.5 21.525s-9.225 20.5-20.5 20.5zM448.95 430.569h-427.425c-12.3 0-21.525-9.225-21.525-20.5s9.225-21.525 21.525-21.525h427.425c11.275 0 20.5 9.225 20.5 21.525s-9.225 20.5-20.5 20.5zM448.95 302.444h-427.425c-12.3 0-21.525-9.225-21.525-20.5s9.225-21.525 21.525-21.525h427.425c11.275 0 20.5 9.225 20.5 21.525s-9.225 20.5-20.5 20.5zM448.95 174.318h-427.425c-12.3 0-21.525-9.225-21.525-20.5s9.225-21.525 21.525-21.525h427.425c11.275 0 20.5 9.225 20.5 21.525s-9.225 20.5-20.5 20.5zM320.825 46.193h-299.3c-12.3 0-21.525-9.225-21.525-20.5s9.225-21.525 21.525-21.525h299.3c11.275 0 20.5 9.225 20.5 21.525s-9.225 20.5-20.5 20.5zM577.076 644.794h426.4c12.3 0 21.525 9.225 21.525 21.525s-9.225 20.5-21.525 20.5h-426.4c-12.3 0-21.525-9.225-21.525-20.5s9.225-21.525 21.525-21.525zM1003.476 558.694h-426.4c-12.3 0-21.525-9.225-21.525-20.5s9.225-21.525 21.525-21.525h426.4c12.3 0 21.525 9.225 21.525 21.525s-9.225 20.5-21.525 20.5zM1003.476 430.569h-426.4c-12.3 0-21.525-9.225-21.525-20.5s9.225-21.525 21.525-21.525h426.4c12.3 0 21.525 9.225 21.525 21.525s-9.225 20.5-21.525 20.5zM1003.476 302.444h-426.4c-12.3 0-21.525-9.225-21.525-20.5s9.225-21.525 21.525-21.525h426.4c12.3 0 21.525 9.225 21.525 21.525s-9.225 20.5-21.525 20.5zM1003.476 174.318h-426.4c-12.3 0-21.525-9.225-21.525-20.5s9.225-21.525 21.525-21.525h426.4c12.3 0 21.525 9.225 21.525 21.525s-9.225 20.5-21.525 20.5zM875.351 46.193h-298.275c-12.3 0-21.525-9.225-21.525-20.5s9.225-21.525 21.525-21.525h298.275c12.3 0 21.525 9.225 21.525 21.525s-9.225 20.5-21.525 20.5z" />
<glyph unicode="&#xe818;" glyph-name="countdown" d="M798.476 626.344l51.25 69.7c7.175 9.225 5.125 22.55-4.1 29.725s-22.55 5.125-29.725-4.1l-51.25-69.7c-55.35 37.925-118.9 62.525-187.575 72.775v90.2h20.5c12.3 0 21.525 10.25 21.525 21.525s-9.225 21.525-21.525 21.525h-170.15c-12.3 0-21.525-9.225-21.525-21.525s9.225-21.525 21.525-21.525h21.525v-90.2c-68.675-10.25-133.25-34.85-187.575-71.75l-52.275 68.675c-7.175 9.225-20.5 11.275-29.725 4.1s-11.275-20.5-4.1-29.725l51.25-69.7c-99.425-82-161.95-206.025-161.95-344.4 0-248.050 200.9-448.95 447.925-448.95s448.95 200.9 448.95 448.95c0 138.375-63.55 262.4-162.975 344.4zM490.975 814.944h43.050v-86.1c-7.175 0-14.35 1.025-21.525 1.025s-14.35-1.025-21.525-1.025v86.1zM512.5-123.957c-223.45 0-405.9 181.425-405.9 405.9s182.45 404.875 405.9 404.875 405.9-181.425 405.9-404.875-182.45-405.9-405.9-405.9zM512.5 644.794c-11.275 0-21.525-10.25-21.525-21.525v-341.325c0-12.3 10.25-21.525 21.525-21.525h341.325c12.3 0 21.525 9.225 21.525 21.525 0 199.875-162.975 362.85-362.85 362.85zM534.026 302.444v298.275c159.9-10.25 288.025-138.375 298.275-298.275h-298.275z" />
<glyph unicode="&#xe819;" glyph-name="counter" d="M1018.851 585.344l-128.125 128.125c-2.050 1.025-4.1 3.075-7.175 4.1-1.025 1.025-3.075 1.025-4.1 1.025-2.050 0-3.075 1.025-4.1 1.025s-3.075-1.025-4.1-1.025c-1.025-1.025-3.075-1.025-4.1-1.025-2.050-1.025-5.125-3.075-7.175-5.125l-127.1-127.1c-9.225-9.225-9.225-22.55 0-30.75s21.525-8.2 29.725 0l91.225 91.225v-652.926c0-11.275 10.25-21.525 21.525-21.525s21.525 10.25 21.525 21.525v652.926l91.225-91.225c5.125-4.1 10.25-6.15 15.375-6.15s11.275 2.050 15.375 6.15c8.2 8.2 8.2 21.525 0 30.75zM112.75 504.369c-8.2 3.075-18.45 0-23.575-8.2l-85.075-128.125c-7.175-10.25-4.1-22.55 5.125-29.725 10.25-6.15 23.575-4.1 29.725 6.15l46.125 69.7v-271.625c0-11.275 10.25-21.525 21.525-21.525s21.525 10.25 21.525 21.525v341.325c0 10.25-6.15 18.45-15.375 20.5zM320.825 505.394c-59.45 0-107.625-47.15-107.625-106.6 0-11.275 10.25-21.525 21.525-21.525s21.525 10.25 21.525 21.525c0 35.875 28.7 64.575 64.575 64.575s63.55-28.7 63.55-64.575v-12.3c0-14.35-5.125-28.7-14.35-39.975l-151.7-190.65c-5.125-6.15-6.15-15.375-3.075-22.55 4.1-7.175 11.275-12.3 19.475-12.3h171.175c11.275 0 21.525 10.25 21.525 21.525s-10.25 21.525-21.525 21.525h-126.075l124.025 155.8c15.375 18.45 23.575 42.025 23.575 66.625v12.3c0 59.45-48.175 106.6-106.6 106.6zM725.701 398.794c0 59.45-47.15 106.6-106.6 106.6s-106.6-47.15-106.6-106.6c0-11.275 9.225-21.525 21.525-21.525s21.525 10.25 21.525 21.525c0 35.875 28.7 64.575 63.55 64.575s64.575-28.7 64.575-64.575-28.7-63.55-64.575-63.55c-11.275 0-21.525-10.25-21.525-21.525s10.25-21.525 21.525-21.525c35.875 0 64.575-28.7 64.575-64.575s-28.7-63.55-64.575-63.55-63.55 28.7-63.55 63.55c0 12.3-10.25 21.525-21.525 21.525s-21.525-9.225-21.525-21.525c0-58.425 48.175-106.6 106.6-106.6s106.6 48.175 106.6 106.6c0 35.875-16.4 66.625-42.025 86.1 25.625 19.475 42.025 50.225 42.025 85.075z" />
<glyph unicode="&#xe820;" glyph-name="date" d="M961.451 666.319h-896.876c-35.875 0-64.575-28.7-64.575-64.575v-512.5c0-34.85 28.7-63.55 64.575-63.55h896.876c34.85 0 63.55 28.7 63.55 63.55v512.5c0 35.875-28.7 64.575-63.55 64.575zM981.951 89.243c0-11.275-9.225-21.525-20.5-21.525h-896.876c-12.3 0-21.525 10.25-21.525 21.525v512.5c0 12.3 9.225 21.525 21.525 21.525h896.876c11.275 0 20.5-9.225 20.5-21.525v-512.5zM413.075 536.144c-11.275 4.1-23.575-1.025-27.675-12.3l-128.125-341.325c-4.1-11.275 2.050-23.575 13.325-27.675 2.050-1.025 4.1-1.025 7.175-1.025 8.2 0 16.4 5.125 19.475 13.325l128.125 341.325c4.1 11.275-1.025 23.575-12.3 27.675zM755.426 536.144c-11.275 4.1-23.575-1.025-27.675-12.3l-128.125-341.325c-4.1-11.275 1.025-23.575 12.3-27.675 2.050-1.025 5.125-1.025 7.175-1.025 9.225 0 17.425 5.125 20.5 13.325l128.125 341.325c4.1 11.275-2.050 23.575-12.3 27.675zM192.7 195.844h-86.1c-11.275 0-21.525-9.225-21.525-21.525 0-11.275 10.25-20.5 21.525-20.5h86.1c11.275 0 20.5 9.225 20.5 20.5s-9.225 21.525-20.5 21.525zM534.026 195.844h-171.175c-11.275 0-21.525-9.225-21.525-21.525 0-11.275 10.25-20.5 21.525-20.5h171.175c11.275 0 21.525 9.225 21.525 20.5s-10.25 21.525-21.525 21.525zM918.401 195.844h-213.2c-12.3 0-21.525-9.225-21.525-21.525 0-11.275 9.225-20.5 21.525-20.5h213.2c11.275 0 21.525 9.225 21.525 20.5s-10.25 21.525-21.525 21.525z" />
<glyph unicode="&#xe821;" glyph-name="divider-shape" d="M1015.776 405.969c-9.225 6.15-22.55 4.1-29.725-5.125-15.375-21.525-63.55-76.875-105.575-76.875-41 0-90.2 55.35-105.575 76.875-8.2 11.275-26.65 11.275-34.85 0-15.375-21.525-63.55-76.875-105.575-76.875s-89.175 55.35-104.55 76.875c-4.1 5.125-11.275 9.225-17.425 9.225-7.175 0-13.325-4.1-17.425-9.225-15.375-21.525-64.575-76.875-105.575-76.875s-90.2 55.35-105.575 76.875c-4.1 5.125-10.25 9.225-17.425 9.225-6.15 0-13.325-4.1-17.425-9.225-15.375-21.525-63.55-76.875-104.55-76.875-42.025 0-90.2 55.35-105.575 76.875-7.175 9.225-20.5 11.275-29.725 5.125-10.25-7.175-12.3-20.5-5.125-29.725 7.175-10.25 69.7-94.3 140.425-94.3 50.225 0 97.375 44.075 121.975 71.75 24.6-27.675 71.75-71.75 123-71.75s98.4 44.075 123 72.775c24.6-28.7 71.75-72.775 121.975-72.775 51.25 0 98.4 44.075 123 72.775 24.6-28.7 71.75-72.775 123-72.775 70.725 0 133.25 84.050 140.425 94.3 7.175 9.225 5.125 22.55-5.125 29.725z" />
<glyph unicode="&#xe822;" glyph-name="divider" d="M43.050 452.094h938.901c12.3 0 21.525 10.25 21.525 21.525s-9.225 21.525-21.525 21.525h-938.901c-12.3 0-21.525-9.225-21.525-21.525s9.225-21.525 21.525-21.525zM384.375 623.269h256.25c8.2 0 15.375 5.125 19.475 12.3s2.050 15.375-2.050 21.525l-128.125 171.175c-8.2 11.275-26.65 11.275-34.85 0l-128.125-171.175c-4.1-6.15-5.125-14.35-2.050-21.525 4.1-7.175 11.275-12.3 19.475-12.3zM512.5 780.094l85.075-113.775h-170.15l85.075 113.775zM640.626 67.718h-256.25c-8.2 0-15.375-4.1-19.475-11.275-3.075-7.175-2.050-16.4 2.050-22.55l128.125-171.175c4.1-5.125 11.275-8.2 17.425-8.2s13.325 3.075 17.425 8.2l128.125 171.175c4.1 6.15 5.125 15.375 2.050 22.55-4.1 7.175-11.275 11.275-19.475 11.275zM512.5-88.082l-85.075 113.775h170.15l-85.075-113.775zM981.951 238.894h-938.901c-12.3 0-21.525-9.225-21.525-21.525s9.225-21.525 21.525-21.525h938.901c12.3 0 21.525 10.25 21.525 21.525s-9.225 21.525-21.525 21.525z" />
<glyph unicode="&#xe823;" glyph-name="download-button" d="M896.876 708.344h-768.751c-58.425 0-106.6-48.175-106.6-106.6v-256.25c0-58.425 48.175-106.6 106.6-106.6h299.3c11.275 0 21.525 9.225 21.525 21.525s-10.25 21.525-21.525 21.525h-299.3c-34.85 0-63.55 28.7-63.55 63.55v256.25c0 35.875 28.7 64.575 63.55 64.575h768.751c35.875 0 64.575-28.7 64.575-64.575v-256.25c0-34.85-28.7-63.55-64.575-63.55h-299.3c-11.275 0-20.5-10.25-20.5-21.525s9.225-21.525 20.5-21.525h299.3c58.425 0 106.6 48.175 106.6 106.6v256.25c0 58.425-48.175 106.6-106.6 106.6zM625.251 146.643l-91.225-91.225v375.15c0 12.3-9.225 21.525-21.525 21.525s-21.525-9.225-21.525-21.525v-375.15l-91.225 91.225c-8.2 9.225-22.55 9.225-30.75 0s-8.2-21.525 0-29.725l128.125-128.125c4.1-4.1 10.25-6.15 15.375-6.15s11.275 2.050 15.375 6.15l128.125 128.125c8.2 8.2 8.2 21.525 0 29.725-8.2 9.225-22.55 9.225-30.75 0z" />
<glyph unicode="&#xe824;" glyph-name="dual-button" d="M334.15 468.494c-6.15 5.125-15.375 7.175-22.55 3.075-8.2-3.075-12.3-11.275-12.3-19.475v-384.375c0-8.2 5.125-16.4 13.325-19.475 7.175-3.075 16.4-1.025 22.55 4.1l64.575 64.575 72.775-144.525c2.050-5.125 7.175-9.225 12.3-10.25 2.050-1.025 4.1-1.025 6.15-1.025 4.1 0 8.2 1.025 11.275 3.075l95.325 55.35c5.125 3.075 9.225 8.2 10.25 13.325 1.025 6.15 0 11.275-3.075 16.4l-75.85 125.050h90.2c9.225 0 17.425 6.15 20.5 14.35s0 17.425-6.15 23.575l-299.3 256.25zM490.975 217.369c-7.175 0-14.35-4.1-18.45-11.275-4.1-6.15-4.1-14.35 0-21.525l85.075-138.375-57.4-33.825-74.825 150.675c-3.075 6.15-9.225 10.25-16.4 11.275-1.025 0-2.050 0-3.075 0-6.15 0-11.275-2.050-15.375-6.15l-49.2-48.175v285.975l220.375-188.6c0 0-70.725 0-70.725 0zM918.401 729.869h-811.801c-58.425 0-106.6-48.175-106.6-106.6v-256.25c0-59.45 48.175-106.6 106.6-106.6h128.125c12.3 0 21.525 9.225 21.525 21.525s-9.225 20.5-21.525 20.5h-128.125c-34.85 0-63.55 28.7-63.55 64.575v256.25c0 34.85 28.7 63.55 63.55 63.55h405.9v-106.6c0 0 0 0 0 0v-128.125c0 0 0 0 0 0v-63.55c0-12.3 9.225-21.525 21.525-21.525s21.525 9.225 21.525 21.525v55.35l243.95 242.925h67.65l-305.45-304.425c-8.2-9.225-8.2-22.55 0-30.75 4.1-4.1 9.225-6.15 15.375-6.15s10.25 2.050 14.35 6.15l335.175 335.175c17.425-3.075 32.8-12.3 43.050-25.625-1.025-1.025-2.050-1.025-2.050-2.050l-342.35-341.325c-7.175-7.175-7.175-17.425-3.075-25.625-1.025-3.075-3.075-7.175-3.075-10.25 0-12.3 10.25-21.525 21.525-21.525h277.775c58.425 0 106.6 48.175 106.6 106.6v256.25c0 58.425-48.175 106.6-106.6 106.6zM610.901 686.819l-55.35-54.325v54.325h55.35zM555.551 504.369v67.65l115.825 114.8h67.65l-183.475-182.45zM867.151 302.444h-67.65l182.45 183.475v-67.65l-114.8-115.825zM981.951 614.044v-67.65l-242.925-243.95h-67.65l310.575 311.6zM927.626 303.469l53.3 53.3c-4.1-26.65-25.625-48.175-53.3-53.3z" />
<glyph unicode="&#xe825;" glyph-name="email-field" d="M961.451 666.319h-896.876c-35.875 0-64.575-28.7-64.575-64.575v-512.5c0-34.85 28.7-63.55 64.575-63.55h896.876c34.85 0 63.55 28.7 63.55 63.55v512.5c0 35.875-28.7 64.575-63.55 64.575zM981.951 89.243c0-11.275-9.225-21.525-20.5-21.525h-896.876c-12.3 0-21.525 10.25-21.525 21.525v512.5c0 12.3 9.225 21.525 21.525 21.525h896.876c11.275 0 20.5-9.225 20.5-21.525v-512.5zM320.825 580.219c-130.175 0-235.75-105.575-235.75-234.725s105.575-234.725 235.75-234.725c60.475 0 118.9 23.575 162.975 65.6 8.2 8.2 8.2 22.55 0 30.75s-21.525 8.2-29.725 0c-35.875-34.85-83.025-53.3-133.25-53.3-106.6 0-192.7 86.1-192.7 191.675s86.1 192.7 192.7 192.7c104.55 0 189.625-85.075 191.675-189.625 0-1.025-1.025-2.050-1.025-3.075 0-23.575-19.475-43.050-43.050-43.050-21.525 0-39.975 17.425-42.025 39.975 0 1.025 1.025 2.050 1.025 3.075 0 58.425-48.175 106.6-106.6 106.6s-107.625-48.175-107.625-106.6 48.175-106.6 107.625-106.6c35.875 0 68.675 18.45 87.125 46.125 16.4-15.375 36.9-24.6 60.475-24.6 44.075 0 80.975 33.825 85.075 76.875 1.025 2.050 2.050 5.125 2.050 8.2 0 129.15-105.575 234.725-234.725 234.725zM320.825 281.944c-35.875 0-64.575 28.7-64.575 63.55s28.7 64.575 64.575 64.575c33.825 0 61.5-27.675 63.55-61.5 0-1.025-1.025-2.050-1.025-3.075 0-2.050 0-3.075 1.025-5.125-3.075-32.8-30.75-58.425-63.55-58.425z" />
<glyph unicode="&#xe826;" glyph-name="facebook-comments" d="M918.401 729.869h-811.801c-58.425 0-106.6-48.175-106.6-106.6v-427.425c0-58.425 48.175-106.6 106.6-106.6h268.55l121.975-121.975c4.1-4.1 10.25-6.15 15.375-6.15s11.275 2.050 15.375 6.15l121.975 121.975h268.55c58.425 0 106.6 48.175 106.6 106.6v427.425c0 58.425-48.175 106.6-106.6 106.6zM981.951 195.844c0-34.85-28.7-63.55-63.55-63.55h-277.775c-5.125 0-11.275-2.050-15.375-6.15l-112.75-113.775-112.75 113.775c-4.1 4.1-9.225 6.15-15.375 6.15h-277.775c-34.85 0-63.55 28.7-63.55 63.55v427.425c0 34.85 28.7 63.55 63.55 63.55h811.801c34.85 0 63.55-28.7 63.55-63.55v-427.425zM320.825 601.744h-43.050c-59.45 0-106.6-48.175-106.6-106.6v-21.525h-21.525c-12.3 0-21.525-9.225-21.525-21.525s9.225-21.525 21.525-21.525h21.525v-191.675c0-12.3 9.225-21.525 21.525-21.525s20.5 9.225 20.5 21.525v191.675h64.575c11.275 0 21.525 10.25 21.525 21.525s-10.25 21.525-21.525 21.525h-64.575v21.525c0 34.85 28.7 63.55 64.575 63.55h43.050c11.275 0 20.5 10.25 20.5 21.525s-9.225 21.525-20.5 21.525zM747.226 302.444h-298.275c-12.3 0-21.525-9.225-21.525-20.5s9.225-21.525 21.525-21.525h298.275c12.3 0 21.525 9.225 21.525 21.525s-9.225 20.5-21.525 20.5zM875.351 430.569h-426.4c-12.3 0-21.525-9.225-21.525-20.5s9.225-21.525 21.525-21.525h426.4c12.3 0 21.525 9.225 21.525 21.525s-9.225 20.5-21.525 20.5zM875.351 558.694h-426.4c-12.3 0-21.525-9.225-21.525-20.5s9.225-21.525 21.525-21.525h426.4c12.3 0 21.525 9.225 21.525 21.525s-9.225 20.5-21.525 20.5z" />
<glyph unicode="&#xe827;" glyph-name="facebook-like-box" d="M918.401 857.994h-811.801c-58.425 0-106.6-48.175-106.6-106.6v-811.801c0-58.425 48.175-106.6 106.6-106.6h811.801c58.425 0 106.6 48.175 106.6 106.6v811.801c0 58.425-48.175 106.6-106.6 106.6zM981.951-60.407c0-34.85-28.7-63.55-63.55-63.55h-811.801c-34.85 0-63.55 28.7-63.55 63.55v811.801c0 34.85 28.7 63.55 63.55 63.55h811.801c34.85 0 63.55-28.7 63.55-63.55v-811.801zM780.026 430.569h-159.9l1.025 20.5c13.325 27.675 19.475 57.4 19.475 87.125 0 30.75-7.175 62.525-21.525 90.2l-11.275 23.575c-11.275 21.525-32.8 34.85-57.4 34.85h-16.4c-34.85 0-64.575-28.7-64.575-63.55v-76.875c0-3.075 0-6.15-1.025-8.2l-76.875-192.7h-7.175v21.525c0 11.275-9.225 21.525-21.525 21.525h-213.2c-12.3 0-21.525-10.25-21.525-21.525v-384.375c0-12.3 9.225-21.525 21.525-21.525h213.2c12.3 0 21.525 9.225 21.525 21.525v51.25l54.325-27.675c3.075-2.050 6.15-2.050 10.25-2.050h307.5c54.325 0 100.45 41 106.6 94.3l23.575 214.225c3.075 29.725-6.15 60.475-26.65 83.025s-49.2 34.85-79.95 34.85zM341.325 4.168h-170.15v341.325h170.15v-341.325zM843.576 316.794l-23.575-213.2c-3.075-32.8-30.75-57.4-63.55-57.4h-303.4l-68.675 34.85v221.4h21.525c8.2 0 16.4 6.15 19.475 14.35l83.025 205c3.075 8.2 4.1 16.4 4.1 24.6v76.875c0 11.275 9.225 21.525 21.525 21.525h16.4c8.2 0 15.375-5.125 18.45-12.3l12.3-23.575c11.275-21.525 16.4-46.125 16.4-70.725s-5.125-49.2-16.4-71.75c-1.025-3.075-2.050-5.125-2.050-8.2l-2.050-47.15c-1.025-6.15 1.025-12.3 5.125-16.4s10.25-6.15 15.375-6.15h182.45c18.45 0 35.875-8.2 48.175-21.525s17.425-31.775 15.375-50.225z" />
<glyph unicode="&#xe828;" glyph-name="form-horizontal" d="M21.525 814.944h981.951c12.3 0 21.525 10.25 21.525 21.525s-9.225 21.525-21.525 21.525h-981.951c-12.3 0-21.525-9.225-21.525-21.525s9.225-21.525 21.525-21.525zM1003.476 729.869h-981.951c-12.3 0-21.525-9.225-21.525-21.525s9.225-21.525 21.525-21.525h981.951c12.3 0 21.525 10.25 21.525 21.525s-9.225 21.525-21.525 21.525zM1003.476 601.744h-981.951c-12.3 0-21.525-9.225-21.525-21.525v-512.5c0-11.275 9.225-21.525 21.525-21.525h981.951c12.3 0 21.525 10.25 21.525 21.525v512.5c0 12.3-9.225 21.525-21.525 21.525zM43.050 558.694h938.901v-353.625l-114.8-115.825h-824.101v469.45zM927.626 89.243l54.325 55.35v-55.35h-54.325zM299.3 4.168h-214.225c-47.15 0-85.075-38.95-85.075-86.1s37.925-85.075 85.075-85.075h214.225c47.15 0 85.075 37.925 85.075 85.075s-37.925 86.1-85.075 86.1zM299.3-123.957h-214.225c-23.575 0-42.025 18.45-42.025 42.025s18.45 43.050 42.025 43.050h214.225c23.575 0 42.025-19.475 42.025-43.050s-18.45-42.025-42.025-42.025z" />
<glyph unicode="&#xe829;" glyph-name="form-vertical" d="M277.775 430.569h-256.25c-12.3 0-21.525-9.225-21.525-20.5v-128.125c0-12.3 9.225-21.525 21.525-21.525h256.25c11.275 0 21.525 9.225 21.525 21.525v128.125c0 11.275-10.25 20.5-21.525 20.5zM256.25 302.444h-213.2v86.1h213.2v-86.1zM619.101 430.569h-256.25c-11.275 0-21.525-9.225-21.525-20.5v-128.125c0-12.3 10.25-21.525 21.525-21.525h256.25c12.3 0 21.525 9.225 21.525 21.525v128.125c0 11.275-9.225 20.5-21.525 20.5zM597.576 302.444h-213.2v86.1h213.2v-86.1zM939.926 430.569h-171.175c-47.15 0-85.075-37.925-85.075-85.075s37.925-85.075 85.075-85.075h171.175c47.15 0 85.075 37.925 85.075 85.075s-37.925 85.075-85.075 85.075zM939.926 302.444h-171.175c-23.575 0-43.050 19.475-43.050 43.050s19.475 43.050 43.050 43.050h171.175c23.575 0 42.025-19.475 42.025-43.050s-18.45-43.050-42.025-43.050z" />
<glyph unicode="&#xe830;" glyph-name="gallery-grid" d="M299.3 666.319h-256.25c-12.3 0-21.525-10.25-21.525-21.525v-256.25c0-12.3 9.225-21.525 21.525-21.525h256.25c11.275 0 21.525 9.225 21.525 21.525v256.25c0 11.275-10.25 21.525-21.525 21.525zM277.775 410.069h-213.2v213.2h213.2v-213.2zM640.626 666.319h-256.25c-11.275 0-21.525-10.25-21.525-21.525v-256.25c0-12.3 10.25-21.525 21.525-21.525h256.25c12.3 0 21.525 9.225 21.525 21.525v256.25c0 11.275-9.225 21.525-21.525 21.525zM619.101 410.069h-213.2v213.2h213.2v-213.2zM981.951 666.319h-256.25c-11.275 0-20.5-10.25-20.5-21.525v-256.25c0-12.3 9.225-21.525 20.5-21.525h256.25c12.3 0 21.525 9.225 21.525 21.525v256.25c0 11.275-9.225 21.525-21.525 21.525zM961.451 410.069h-214.225v213.2h214.225v-213.2zM299.3 323.969h-256.25c-12.3 0-21.525-9.225-21.525-21.525v-256.25c0-11.275 9.225-20.5 21.525-20.5h256.25c11.275 0 21.525 9.225 21.525 20.5v256.25c0 12.3-10.25 21.525-21.525 21.525zM277.775 67.718h-213.2v214.225h213.2v-214.225zM640.626 323.969h-256.25c-11.275 0-21.525-9.225-21.525-21.525v-256.25c0-11.275 10.25-20.5 21.525-20.5h256.25c12.3 0 21.525 9.225 21.525 20.5v256.25c0 12.3-9.225 21.525-21.525 21.525zM619.101 67.718h-213.2v214.225h213.2v-214.225zM981.951 323.969h-256.25c-11.275 0-20.5-9.225-20.5-21.525v-256.25c0-11.275 9.225-20.5 20.5-20.5h256.25c12.3 0 21.525 9.225 21.525 20.5v256.25c0 12.3-9.225 21.525-21.525 21.525zM961.451 67.718h-214.225v214.225h214.225v-214.225z" />
<glyph unicode="&#xe831;" glyph-name="gallery-group" d="M1003.476 623.269h-213.2c-12.3 0-21.525-9.225-21.525-21.525v-213.2c0-12.3 9.225-21.525 21.525-21.525h213.2c12.3 0 21.525 9.225 21.525 21.525v213.2c0 12.3-9.225 21.525-21.525 21.525zM981.951 410.069h-170.15v170.15h170.15v-170.15zM1003.476 323.969h-213.2c-12.3 0-21.525-9.225-21.525-21.525v-213.2c0-11.275 9.225-21.525 21.525-21.525h213.2c12.3 0 21.525 10.25 21.525 21.525v213.2c0 12.3-9.225 21.525-21.525 21.525zM981.951 110.768h-170.15v171.175h170.15v-171.175zM705.201 623.269h-683.676c-12.3 0-21.525-9.225-21.525-21.525v-512.5c0-11.275 9.225-21.525 21.525-21.525h683.676c11.275 0 20.5 10.25 20.5 21.525v512.5c0 12.3-9.225 21.525-20.5 21.525zM683.676 110.768h-640.626v469.45h640.626v-469.45z" />
<glyph unicode="&#xe832;" glyph-name="gallery-justified" d="M21.525 516.669h213.2c12.3 0 21.525 9.225 21.525 21.525v213.2c0 11.275-9.225 21.525-21.525 21.525h-213.2c-12.3 0-21.525-10.25-21.525-21.525v-213.2c0-12.3 9.225-21.525 21.525-21.525zM43.050 729.869h170.15v-171.175h-170.15v171.175zM320.825 516.669h384.375c11.275 0 20.5 9.225 20.5 21.525v213.2c0 11.275-9.225 21.525-20.5 21.525h-384.375c-12.3 0-21.525-10.25-21.525-21.525v-213.2c0-12.3 9.225-21.525 21.525-21.525zM341.325 729.869h342.35v-171.175h-342.35v171.175zM1003.476 772.919h-213.2c-12.3 0-21.525-10.25-21.525-21.525v-213.2c0-12.3 9.225-21.525 21.525-21.525h213.2c12.3 0 21.525 9.225 21.525 21.525v213.2c0 11.275-9.225 21.525-21.525 21.525zM981.951 558.694h-170.15v171.175h170.15v-171.175zM705.201 473.619h-214.225c-11.275 0-21.525-9.225-21.525-21.525v-213.2c0-12.3 10.25-21.525 21.525-21.525h214.225c11.275 0 20.5 9.225 20.5 21.525v213.2c0 12.3-9.225 21.525-20.5 21.525zM683.676 260.419h-171.175v170.15h171.175v-170.15zM21.525 217.369h384.375c11.275 0 21.525 9.225 21.525 21.525v213.2c0 12.3-10.25 21.525-21.525 21.525h-384.375c-12.3 0-21.525-9.225-21.525-21.525v-213.2c0-12.3 9.225-21.525 21.525-21.525zM43.050 430.569h341.325v-170.15h-341.325v170.15zM1003.476 473.619h-213.2c-12.3 0-21.525-9.225-21.525-21.525v-213.2c0-12.3 9.225-21.525 21.525-21.525h213.2c12.3 0 21.525 9.225 21.525 21.525v213.2c0 12.3-9.225 21.525-21.525 21.525zM981.951 260.419h-170.15v170.15h170.15v-170.15zM192.7 174.318h-171.175c-12.3 0-21.525-9.225-21.525-20.5v-214.225c0-11.275 9.225-21.525 21.525-21.525h171.175c11.275 0 20.5 10.25 20.5 21.525v214.225c0 11.275-9.225 20.5-20.5 20.5zM171.175-38.882h-128.125v171.175h128.125v-171.175zM619.101 174.318h-341.325c-12.3 0-21.525-9.225-21.525-20.5v-214.225c0-11.275 9.225-21.525 21.525-21.525h341.325c12.3 0 21.525 10.25 21.525 21.525v214.225c0 11.275-9.225 20.5-21.525 20.5zM597.576-38.882h-298.275v171.175h298.275v-171.175zM1003.476 174.318h-298.275c-12.3 0-21.525-9.225-21.525-20.5v-214.225c0-11.275 9.225-21.525 21.525-21.525h298.275c12.3 0 21.525 10.25 21.525 21.525v214.225c0 11.275-9.225 20.5-21.525 20.5zM981.951-38.882h-256.25v171.175h256.25v-171.175z" />
<glyph unicode="&#xe833;" glyph-name="gallery-masonry" d="M299.3 751.394h-256.25c-12.3 0-21.525-9.225-21.525-21.525v-256.25c0-11.275 9.225-21.525 21.525-21.525h256.25c11.275 0 21.525 10.25 21.525 21.525v256.25c0 12.3-10.25 21.525-21.525 21.525zM277.775 495.144h-213.2v213.2h213.2v-213.2zM640.626 751.394h-256.25c-11.275 0-21.525-9.225-21.525-21.525v-427.425c0-11.275 10.25-20.5 21.525-20.5h256.25c12.3 0 21.525 9.225 21.525 20.5v427.425c0 12.3-9.225 21.525-21.525 21.525zM619.101 323.969h-213.2v384.375h213.2v-384.375zM981.951 751.394h-256.25c-11.275 0-20.5-9.225-20.5-21.525v-341.325c0-12.3 9.225-21.525 20.5-21.525h256.25c12.3 0 21.525 9.225 21.525 21.525v341.325c0 12.3-9.225 21.525-21.525 21.525zM961.451 410.069h-214.225v298.275h214.225v-298.275zM299.3 410.069h-256.25c-12.3 0-21.525-10.25-21.525-21.525v-256.25c0-12.3 9.225-21.525 21.525-21.525h256.25c11.275 0 21.525 9.225 21.525 21.525v256.25c0 11.275-10.25 21.525-21.525 21.525zM277.775 153.818h-213.2v213.2h213.2v-213.2zM640.626 238.894h-256.25c-11.275 0-21.525-9.225-21.525-21.525v-256.25c0-12.3 10.25-21.525 21.525-21.525h256.25c12.3 0 21.525 9.225 21.525 21.525v256.25c0 12.3-9.225 21.525-21.525 21.525zM619.101-17.357h-213.2v213.2h213.2v-213.2zM981.951 323.969h-256.25c-11.275 0-20.5-9.225-20.5-21.525v-256.25c0-11.275 9.225-20.5 20.5-20.5h256.25c12.3 0 21.525 9.225 21.525 20.5v256.25c0 12.3-9.225 21.525-21.525 21.525zM961.451 67.718h-214.225v214.225h214.225v-214.225z" />
<glyph unicode="&#xe834;" glyph-name="icon-box" d="M234.725 217.369h555.551c11.275 0 21.525 9.225 21.525 21.525s-10.25 21.525-21.525 21.525h-555.551c-11.275 0-21.525-10.25-21.525-21.525s10.25-21.525 21.525-21.525zM790.276 132.293h-555.551c-11.275 0-21.525-10.25-21.525-21.525s10.25-21.525 21.525-21.525h555.551c11.275 0 21.525 9.225 21.525 21.525s-10.25 21.525-21.525 21.525zM790.276 4.168h-555.551c-11.275 0-21.525-10.25-21.525-21.525s10.25-21.525 21.525-21.525h555.551c11.275 0 21.525 9.225 21.525 21.525s-10.25 21.525-21.525 21.525zM790.276-123.957h-555.551c-11.275 0-21.525-10.25-21.525-21.525s10.25-21.525 21.525-21.525h555.551c11.275 0 21.525 9.225 21.525 21.525s-10.25 21.525-21.525 21.525zM512.5 345.494c141.45 0 256.25 114.8 256.25 256.25s-114.8 256.25-256.25 256.25-256.25-114.8-256.25-256.25 114.8-256.25 256.25-256.25zM512.5 814.944c117.875 0 213.2-95.325 213.2-213.2s-95.325-213.2-213.2-213.2-213.2 95.325-213.2 213.2 95.325 213.2 213.2 213.2zM512.5 473.619c70.725 0 128.125 57.4 128.125 128.125s-57.4 128.125-128.125 128.125-128.125-57.4-128.125-128.125 57.4-128.125 128.125-128.125zM512.5 686.819c47.15 0 85.075-37.925 85.075-85.075s-37.925-85.075-85.075-85.075-85.075 37.925-85.075 85.075 37.925 85.075 85.075 85.075z" />
<glyph unicode="&#xe835;" glyph-name="image-before-after" d="M234.725 388.544c59.45 0 106.6 47.15 106.6 106.6s-47.15 106.6-106.6 106.6-106.6-48.175-106.6-106.6 48.175-106.6 106.6-106.6zM234.725 558.694c35.875 0 64.575-28.7 64.575-63.55s-28.7-64.575-64.575-64.575-63.55 28.7-63.55 64.575 28.7 63.55 63.55 63.55zM1003.476 729.869h-490.975v85.075h21.525c11.275 0 21.525 10.25 21.525 21.525s-10.25 21.525-21.525 21.525h-85.075c-12.3 0-21.525-9.225-21.525-21.525s9.225-21.525 21.525-21.525h20.5v-85.075h-447.925c-12.3 0-21.525-9.225-21.525-21.525v-725.701c0-12.3 9.225-21.525 21.525-21.525h447.925v-85.075h-20.5c-12.3 0-21.525-10.25-21.525-21.525s9.225-21.525 21.525-21.525h85.075c11.275 0 21.525 9.225 21.525 21.525s-10.25 21.525-21.525 21.525h-21.525v85.075h490.975c12.3 0 21.525 9.225 21.525 21.525v725.701c0 12.3-9.225 21.525-21.525 21.525zM469.45 686.819v-292.125l-130.175-206.025-131.2 149.65c-4.1 5.125-11.275 7.175-18.45 7.175-6.15-1.025-12.3-5.125-16.4-10.25l-130.175-229.6v581.176h426.4zM43.050 4.168v15.375l152.725 268.55 130.175-148.625c4.1-5.125 11.275-8.2 17.425-7.175 7.175 0 12.3 4.1 16.4 9.225l109.675 173.225v-310.575h-426.4zM981.951 4.168h-469.45v682.651h469.45v-682.651z" />
<glyph unicode="&#xe836;" glyph-name="image-box" d="M896.876 836.469c0 12.3-9.225 21.525-21.525 21.525h-725.701c-12.3 0-21.525-9.225-21.525-21.525v-469.45c0-3.075 1.025-5.125 2.050-8.2 0-1.025 0-1.025 0-1.025 1.025-2.050 2.050-4.1 4.1-6.15 4.1-4.1 10.25-6.15 15.375-6.15v0h725.701c5.125 0 9.225 2.050 12.3 4.1 0 0 1.025 0 1.025 1.025 0 0 1.025 0 1.025 0 1.025 1.025 2.050 3.075 3.075 4.1s1.025 2.050 2.050 3.075c0 1.025 1.025 2.050 1.025 4.1 0 1.025 1.025 2.050 1.025 4.1 0 0 0 0 0 1.025v469.45zM853.826 814.944v-386.425l-196.8 250.1c-3.075 5.125-9.225 8.2-15.375 8.2-7.175 1.025-12.3-2.050-16.4-7.175l-158.875-176.3-112.75 71.75c-9.225 5.125-19.475 4.1-26.65-3.075l-155.8-153.75v396.675h682.651zM831.276 388.544h-629.351l142.475 141.45 113.775-72.775c9.225-5.125 20.5-4.1 27.675 4.1l153.75 171.175 191.675-243.95zM790.276 260.419h-555.551c-11.275 0-21.525-10.25-21.525-21.525s10.25-21.525 21.525-21.525h555.551c11.275 0 21.525 9.225 21.525 21.525s-10.25 21.525-21.525 21.525zM790.276 132.293h-555.551c-11.275 0-21.525-10.25-21.525-21.525s10.25-21.525 21.525-21.525h555.551c11.275 0 21.525 9.225 21.525 21.525s-10.25 21.525-21.525 21.525zM790.276 4.168h-555.551c-11.275 0-21.525-10.25-21.525-21.525s10.25-21.525 21.525-21.525h555.551c11.275 0 21.525 9.225 21.525 21.525s-10.25 21.525-21.525 21.525zM790.276-123.957h-555.551c-11.275 0-21.525-10.25-21.525-21.525s10.25-21.525 21.525-21.525h555.551c11.275 0 21.525 9.225 21.525 21.525s-10.25 21.525-21.525 21.525zM341.325 601.744c47.15 0 86.1 37.925 86.1 85.075s-38.95 86.1-86.1 86.1-85.075-38.95-85.075-86.1 37.925-85.075 85.075-85.075zM341.325 729.869c23.575 0 43.050-19.475 43.050-43.050s-19.475-42.025-43.050-42.025-42.025 18.45-42.025 42.025 18.45 43.050 42.025 43.050z" />
<glyph unicode="&#xe837;" glyph-name="image-hotspot" d="M234.725 302.444c59.45 0 106.6 48.175 106.6 107.625s-47.15 106.6-106.6 106.6-106.6-48.175-106.6-106.6 48.175-107.625 106.6-107.625zM234.725 473.619c35.875 0 64.575-28.7 64.575-63.55s-28.7-64.575-64.575-64.575-63.55 28.7-63.55 64.575 28.7 63.55 63.55 63.55zM1003.476 644.794h-150.675c1.025 7.175 1.025 14.35 1.025 21.525 0 82-66.625 148.625-148.625 148.625s-149.65-66.625-149.65-148.625c0-7.175 0-14.35 1.025-21.525h-535.051c-12.3 0-21.525-10.25-21.525-21.525v-726.726c0-11.275 9.225-20.5 21.525-20.5h981.951c12.3 0 21.525 9.225 21.525 20.5v726.726c0 11.275-9.225 21.525-21.525 21.525zM705.201 772.919c58.425 0 106.6-48.175 106.6-106.6 0-76.875-72.775-203.975-106.6-259.325-34.85 55.35-107.625 182.45-107.625 259.325 0 58.425 48.175 106.6 107.625 106.6zM565.801 601.744c29.725-108.65 116.85-239.85 120.95-247.025 4.1-5.125 11.275-9.225 18.45-9.225s13.325 4.1 17.425 9.225c4.1 7.175 91.225 138.375 120.95 247.025h138.375v-560.676l-175.275 211.15c-8.2 10.25-24.6 10.25-32.8 0l-87.125-104.55-134.275 229.6c-4.1 7.175-10.25 11.275-18.45 11.275-6.15-1.025-14.35-4.1-18.45-10.25l-176.3-274.7-131.2 149.65c-4.1 5.125-11.275 7.175-18.45 7.175-6.15-1.025-12.3-5.125-16.4-11.275l-130.175-228.575v581.176h522.75zM43.050-81.932v16.4l152.725 267.525 130.175-148.625c4.1-4.1 10.25-7.175 17.425-7.175 6.15 1.025 12.3 4.1 16.4 10.25l173.225 269.575 132.225-226.525c3.075-6.15 9.225-9.225 16.4-10.25 7.175 0 13.325 2.050 18.45 8.2l90.2 107.625 191.675-230.625v-56.375h-938.901zM768.751 666.319c0 34.85-28.7 63.55-63.55 63.55s-64.575-28.7-64.575-63.55 28.7-64.575 64.575-64.575 63.55 28.7 63.55 64.575zM683.676 666.319c0 11.275 9.225 20.5 21.525 20.5s20.5-9.225 20.5-20.5-9.225-21.525-20.5-21.525-21.525 9.225-21.525 21.525z" />
<glyph unicode="&#xe838;" glyph-name="image-rollover" d="M128.125 623.269c0-59.45 48.175-106.6 106.6-106.6s106.6 47.15 106.6 106.6-47.15 106.6-106.6 106.6-106.6-48.175-106.6-106.6zM299.3 623.269c0-35.875-28.7-64.575-64.575-64.575s-63.55 28.7-63.55 64.575 28.7 63.55 63.55 63.55 64.575-28.7 64.575-63.55zM1003.476 857.994h-981.951c-12.3 0-21.525-9.225-21.525-21.525v-725.701c0-12.3 9.225-21.525 21.525-21.525h469.45c12.3 0 21.525 9.225 21.525 21.525s-9.225 21.525-21.525 21.525h-447.925v15.375l152.725 268.55 130.175-148.625c4.1-5.125 11.275-8.2 17.425-7.175 7.175 0 13.325 4.1 16.4 10.25l106.6 170.15c6.15 10.25 3.075 23.575-6.15 29.725-10.25 6.15-23.575 3.075-29.725-7.175l-91.225-146.575-131.2 149.65c-4.1 5.125-11.275 8.2-18.45 7.175-6.15-1.025-12.3-5.125-16.4-10.25l-130.175-229.6v581.176h938.901v-576.051c0-12.3 10.25-21.525 21.525-21.525s21.525 9.225 21.525 21.525v597.576c0 12.3-9.225 21.525-21.525 21.525zM591.426 552.544c-6.15 6.15-15.375 8.2-22.55 5.125-8.2-3.075-13.325-11.275-13.325-19.475v-592.451c0-7.175 4.1-15.375 11.275-18.45 8.2-4.1 16.4-3.075 22.55 2.050l108.65 85.075 94.3-170.15c4.1-7.175 11.275-11.275 19.475-11.275 3.075 0 6.15 1.025 9.225 2.050l128.125 64.575c5.125 2.050 9.225 7.175 11.275 12.3 1.025 6.15 1.025 11.275-2.050 16.4l-89.175 160.925h134.275c9.225 0 16.4 5.125 19.475 13.325 4.1 8.2 2.050 17.425-4.1 23.575l-427.425 426.4zM833.326 132.293c-8.2 0-15.375-4.1-18.45-11.275-4.1-6.15-4.1-14.35-1.025-20.5l96.35-173.225-90.2-45.1-96.35 174.25c-3.075 6.15-8.2 10.25-14.35 11.275-2.050 0-3.075 0-4.1 0-5.125 0-10.25-1.025-13.325-4.1l-94.3-73.8v496.1l354.65-353.625h-118.9z" />
<glyph unicode="&#xe839;" glyph-name="info-box" d="M875.351 857.994h-725.701c-12.3 0-21.525-9.225-21.525-21.525v-469.45c0 0 0 0 0 0v-512.5c0-12.3 9.225-21.525 21.525-21.525h725.701c12.3 0 21.525 9.225 21.525 21.525v981.951c0 12.3-9.225 21.525-21.525 21.525zM853.826 814.944v-386.425l-196.8 250.1c-3.075 5.125-9.225 8.2-15.375 8.2-6.15 1.025-12.3-2.050-16.4-7.175l-158.875-176.3-112.75 71.75c-9.225 5.125-19.475 4.1-26.65-3.075l-155.8-153.75v396.675h682.651zM831.276 388.544h-629.351l142.475 141.45 113.775-72.775c9.225-5.125 20.5-4.1 27.675 4.1l153.75 171.175 191.675-243.95zM171.175-123.957v469.45h682.651v-469.45h-682.651zM747.226 260.419h-469.45c-12.3 0-21.525-10.25-21.525-21.525s9.225-21.525 21.525-21.525h469.45c12.3 0 21.525 9.225 21.525 21.525s-9.225 21.525-21.525 21.525zM662.151 89.243h-299.3c-11.275 0-21.525-9.225-21.525-21.525v-85.075c0-12.3 10.25-21.525 21.525-21.525h299.3c11.275 0 21.525 9.225 21.525 21.525v85.075c0 12.3-10.25 21.525-21.525 21.525zM640.626 4.168h-256.25v42.025h256.25v-42.025zM341.325 601.744c47.15 0 86.1 37.925 86.1 85.075s-38.95 86.1-86.1 86.1-85.075-38.95-85.075-86.1 37.925-85.075 85.075-85.075zM341.325 729.869c23.575 0 43.050-19.475 43.050-43.050s-19.475-42.025-43.050-42.025-42.025 18.45-42.025 42.025 18.45 43.050 42.025 43.050z" />
<glyph unicode="&#xe840;" glyph-name="inner-section" d="M1003.476 857.994h-981.951c-12.3 0-21.525-9.225-21.525-21.525v-981.951c0-12.3 9.225-21.525 21.525-21.525h981.951c12.3 0 21.525 9.225 21.525 21.525v981.951c0 12.3-9.225 21.525-21.525 21.525zM469.45 345.494h512.5v-213.2h-512.5v213.2zM981.951 388.544h-256.25v426.4h256.25v-426.4zM683.676 814.944v-426.4h-640.626v426.4h640.626zM43.050 345.494h384.375v-469.45h-384.375v469.45zM469.45-123.957v213.2h512.5v-213.2h-512.5z" />
<glyph unicode="&#xe841;" glyph-name="mailchimp" d="M939.926 166.118v21.525c8.2 10.25 21.525 28.7 21.525 51.25 0 31.775-64.575 98.4-107.625 120.95v92.25c0 35.875-18.45 82-43.050 117.875 22.55 19.475 86.1 82 86.1 138.375 0 89.175-65.6 106.6-171.175 106.6-25.625 0-58.425-7.175-96.35-20.5-16.4 20.5-55.35 63.55-95.325 63.55-47.15 0-202.95-45.1-314.675-155.8-107.625-107.625-176.3-244.975-176.3-292.125 0-35.875 35.875-71.75 57.4-91.225-9.225-17.425-15.375-36.9-15.375-58.425 0-72.775 61.5-132.225 134.275-128.125 58.425-179.375 205-299.3 367.975-299.3 98.4 0 192.7 45.1 264.45 120.95 1.025 2.050 3.075 3.075 4.1 5.125 25.625 27.675 48.175 60.475 67.65 96.35 21.525 7.175 58.425 23.575 58.425 55.35 0 26.65-25.625 46.125-42.025 55.35zM918.401 238.894c0-9.225-7.175-18.45-12.3-23.575-24.6-8.2-138.375-41-200.9-41-12.3 0-23.575 1.025-33.825 1.025-47.15 1.025-82 1.025-101.475-18.45-10.25-9.225-14.35-21.525-14.35-39.975-1.025-15.375-1.025-38.95 19.475-59.45 22.55-23.575 64.575-33.825 131.2-33.825 70.725 0 123 7.175 157.85 14.35-12.3-17.425-25.625-33.825-38.95-49.2-16.4-7.175-75.85-27.675-162.975-27.675-94.3 0-171.175 93.275-171.175 171.175 0 65.6 83.025 103.525 92.25 107.625 28.7 2.050 67.65 18.45 111.725 38.95 47.15 20.5 99.425 44.075 135.3 45.1 27.675-10.25 84.050-69.7 88.15-85.075zM811.801 452.094v-88.15c-8.2-1.025-15.375-2.050-22.55-4.1 0 2.050 1.025 5.125 1.025 7.175v21.525c0 11.275-9.225 21.525-21.525 21.525s-21.525-10.25-21.525-21.525v-21.525c0-7.175 4.1-13.325 9.225-16.4-25.625-9.225-52.275-21.525-78.925-32.8-9.225-4.1-18.45-9.225-27.675-12.3 7.175 3.075 12.3 10.25 12.3 18.45v21.525c0 12.3-9.225 21.525-21.525 21.525s-21.525-9.225-21.525-21.525v-21.525c0-11.275 10.25-21.525 21.525-21.525 3.075 0 5.125 1.025 7.175 2.050-27.675-12.3-52.275-21.525-68.675-22.55-17.425 7.175-88.15 36.9-88.15 85.075 0 31.775 8.2 85.075 64.575 85.075 23.575 0 47.15-5.125 69.7-11.275 19.475-5.125 38.95-10.25 58.425-10.25 27.675 0 53.3 18.45 70.725 31.775 6.15 5.125 14.35 10.25 14.35 11.275h6.15c9.225 0 25.625 1.025 31.775-5.125 3.075-3.075 5.125-8.2 5.125-16.4zM853.826 708.344c0-31.775-41-78.925-70.725-105.575-9.225 8.2-18.45 15.375-27.675 18.45-44.075 19.475-276.75 96.35-496.1-241.9-10.25 4.1-21.525 6.15-32.8 8.2 121.975 235.75 391.55 385.4 499.175 385.4 128.125 0 128.125-31.775 128.125-64.575zM85.075 410.069c0 27.675 58.425 154.775 165.025 262.4 99.425 98.4 244.975 142.475 283.925 142.475 14.35 0 36.9-18.45 53.3-36.9-140.425-63.55-320.825-201.925-411.025-395.65-19.475-6.15-35.875-15.375-50.225-28.7-19.475 17.425-41 42.025-41 56.375zM261.375 141.518c5.125 2.050 11.275 5.125 16.4 8.2 10.25 6.15 13.325 19.475 8.2 28.7-6.15 10.25-19.475 14.35-29.725 8.2-13.325-8.2-27.675-12.3-43.050-12.3-47.15 0-85.075 38.95-85.075 86.1s37.925 85.075 85.075 85.075c15.375 0 29.725-4.1 43.050-12.3 10.25-5.125 22.55-2.050 28.7 7.175 205 328 414.1 259.325 454.075 241.9 16.4-7.175 37.925-34.85 53.3-66.625-7.175 1.025-13.325 1.025-18.45 1.025h-5.125c-13.325 0-24.6-9.225-39.975-19.475-13.325-10.25-30.75-23.575-45.1-23.575s-30.75 4.1-48.175 9.225c-23.575 5.125-50.225 12.3-79.95 12.3-52.275 0-106.6-33.825-106.6-128.125 0-53.3 45.1-89.175 79.95-108.65-34.85-22.55-79.95-64.575-79.95-126.075 0-99.425 93.275-214.225 213.2-214.225 33.825 0 62.525 3.075 88.15 7.175-50.225-31.775-105.575-49.2-162.975-49.2-143.5 0-272.65 105.575-325.95 265.475zM903.026 94.368c0 0-1.025-1.025-1.025-1.025-1.025 0-1.025 0-2.050 0-1.025-1.025-63.55-27.675-193.725-27.675-66.625 0-91.225 12.3-101.475 21.525-6.15 7.175-7.175 15.375-7.175 28.7 0 0 0 4.1 0 4.1 0 3.075 1.025 5.125 2.050 6.15 7.175 7.175 41 7.175 70.725 6.15 11.275 0 22.55 0 34.85 0 56.375 0 146.575 22.55 191.675 34.85v-13.325c0-9.225 5.125-16.4 13.325-20.5 15.375-6.15 28.7-18.45 29.725-20.5-3.075-5.125-20.5-14.35-36.9-18.45z" />
<glyph unicode="&#xe842;" glyph-name="menu-card" d="M768.751 729.869h-63.55v106.6c0 7.175-4.1 13.325-9.225 17.425s-12.3 5.125-18.45 3.075l-427.425-128.125c0 0-1.025 0-1.025 0-1.025-1.025-3.075-2.050-4.1-2.050-1.025-1.025-2.050-2.050-3.075-2.050-1.025-1.025-2.050-3.075-2.050-4.1-1.025-1.025-2.050-2.050-3.075-3.075 0-1.025 0-2.050-1.025-4.1 0-1.025 0-2.050-1.025-4.1 0 0 0 0 0-1.025v-853.826c0-12.3 10.25-21.525 21.525-21.525h512.5c12.3 0 21.525 9.225 21.525 21.525v853.826c0 12.3-9.225 21.525-21.525 21.525zM662.151 729.869h-260.35l260.35 77.9v-77.9zM747.226-123.957h-469.45v810.776h469.45v-810.776zM512.5 302.444c-11.275 0-21.525-9.225-21.525-20.5v-43.050c0-36.9-10.25-52.275-21.525-58.425v101.475c0 11.275-9.225 20.5-20.5 20.5s-21.525-9.225-21.525-20.5v-101.475c-11.275 6.15-21.525 21.525-21.525 58.425v43.050c0 11.275-9.225 20.5-21.525 20.5s-21.525-9.225-21.525-20.5v-43.050c0-57.4 23.575-94.3 64.575-104.55v-151.7c0-12.3 9.225-21.525 21.525-21.525s20.5 9.225 20.5 21.525v151.7c41 10.25 64.575 47.15 64.575 104.55v43.050c0 11.275-9.225 20.5-21.525 20.5zM640.626 302.444c-26.65 0-51.25-23.575-70.725-71.75-13.325-32.8-22.55-73.8-22.55-100.45 0-37.925 22.55-41 29.725-41h42.025v-106.6c0-12.3 10.25-21.525 21.525-21.525s21.525 9.225 21.525 21.525v299.3c0 11.275-9.225 20.5-21.525 20.5zM619.101 132.293h-28.7c0 21.525 11.275 69.7 28.7 102.5v-102.5zM640.626 473.619h-256.25c-11.275 0-21.525-9.225-21.525-21.525s10.25-21.525 21.525-21.525h256.25c12.3 0 21.525 10.25 21.525 21.525s-9.225 21.525-21.525 21.525z" />
<glyph unicode="&#xe843;" glyph-name="navigation-horizontal" d="M128.125 452.094c-58.425 0-106.6-48.175-106.6-106.6s48.175-106.6 106.6-106.6 106.6 48.175 106.6 106.6-47.15 106.6-106.6 106.6zM128.125 281.944c-34.85 0-63.55 28.7-63.55 63.55s28.7 64.575 63.55 64.575 64.575-28.7 64.575-64.575-28.7-63.55-64.575-63.55zM512.5 452.094c-58.425 0-106.6-48.175-106.6-106.6s48.175-106.6 106.6-106.6 106.6 48.175 106.6 106.6-47.15 106.6-106.6 106.6zM512.5 281.944c-34.85 0-63.55 28.7-63.55 63.55s28.7 64.575 63.55 64.575 64.575-28.7 64.575-64.575-28.7-63.55-64.575-63.55zM896.876 452.094c-58.425 0-106.6-48.175-106.6-106.6s48.175-106.6 106.6-106.6 106.6 48.175 106.6 106.6-47.15 106.6-106.6 106.6zM896.876 281.944c-34.85 0-63.55 28.7-63.55 63.55s28.7 64.575 63.55 64.575 64.575-28.7 64.575-64.575-28.7-63.55-64.575-63.55z" />
<glyph unicode="&#xe844;" glyph-name="navigation-menu" d="M981.951 686.819h-938.901c-12.3 0-21.525-9.225-21.525-20.5v-128.125c0-12.3 9.225-21.525 21.525-21.525h277.775v-490.975c0-12.3 9.225-21.525 20.5-21.525h427.425c12.3 0 21.525 9.225 21.525 21.525v490.975h191.675c12.3 0 21.525 9.225 21.525 21.525v128.125c0 11.275-9.225 20.5-21.525 20.5zM662.151 558.694h-299.3v86.1h299.3v-86.1zM64.575 644.794h256.25v-86.1h-256.25v86.1zM747.226 46.193h-384.375v470.475h384.375v-470.475zM961.451 558.694h-256.25v86.1h256.25v-86.1zM427.425 430.569c-12.3 0-21.525-9.225-21.525-20.5s9.225-21.525 21.525-21.525h256.25c11.275 0 21.525 9.225 21.525 21.525s-10.25 20.5-21.525 20.5h-256.25zM683.676 302.444h-256.25c-12.3 0-21.525-9.225-21.525-20.5s9.225-21.525 21.525-21.525h256.25c11.275 0 21.525 9.225 21.525 21.525s-10.25 20.5-21.525 20.5zM683.676 174.318h-256.25c-12.3 0-21.525-9.225-21.525-20.5s9.225-21.525 21.525-21.525h256.25c11.275 0 21.525 9.225 21.525 21.525s-10.25 20.5-21.525 20.5z" />
<glyph unicode="&#xe845;" glyph-name="navigation-vertical" d="M512.5 623.269c59.45 0 106.6 48.175 106.6 106.6s-47.15 106.6-106.6 106.6-106.6-48.175-106.6-106.6 48.175-106.6 106.6-106.6zM512.5 794.444c35.875 0 64.575-28.7 64.575-64.575s-28.7-63.55-64.575-63.55-63.55 28.7-63.55 63.55 28.7 64.575 63.55 64.575zM512.5 452.094c-58.425 0-106.6-48.175-106.6-106.6s48.175-106.6 106.6-106.6 106.6 48.175 106.6 106.6-47.15 106.6-106.6 106.6zM512.5 281.944c-34.85 0-63.55 28.7-63.55 63.55s28.7 64.575 63.55 64.575 64.575-28.7 64.575-64.575-28.7-63.55-64.575-63.55zM512.5 67.718c-58.425 0-106.6-48.175-106.6-106.6s48.175-106.6 106.6-106.6 106.6 48.175 106.6 106.6-47.15 106.6-106.6 106.6zM512.5-103.457c-34.85 0-63.55 28.7-63.55 64.575s28.7 64.575 63.55 64.575 64.575-28.7 64.575-64.575-28.7-64.575-64.575-64.575z" />
<glyph unicode="&#xe846;" glyph-name="number-field" d="M961.451 666.319h-896.876c-35.875 0-64.575-28.7-64.575-64.575v-512.5c0-34.85 28.7-63.55 64.575-63.55h896.876c34.85 0 63.55 28.7 63.55 63.55v512.5c0 35.875-28.7 64.575-63.55 64.575zM981.951 89.243c0-11.275-9.225-21.525-20.5-21.525h-896.876c-12.3 0-21.525 10.25-21.525 21.525v512.5c0 12.3 9.225 21.525 21.525 21.525h896.876c11.275 0 20.5-9.225 20.5-21.525v-512.5zM240.875 537.169c-8.2 2.050-18.45-1.025-23.575-9.225l-85.075-128.125c-7.175-9.225-4.1-22.55 5.125-29.725 10.25-6.15 23.575-3.075 29.725 6.15l46.125 69.7v-271.625c0-11.275 10.25-20.5 21.525-20.5s21.525 9.225 21.525 20.5v342.35c0 9.225-6.15 17.425-15.375 20.5zM448.95 538.194c-59.45 0-107.625-48.175-107.625-107.625 0-11.275 10.25-20.5 21.525-20.5s21.525 9.225 21.525 20.5c0 35.875 28.7 64.575 64.575 64.575s63.55-28.7 63.55-64.575v-12.3c0-14.35-5.125-28.7-14.35-39.975l-151.7-190.65c-5.125-6.15-6.15-14.35-3.075-22.55 4.1-7.175 11.275-11.275 19.475-11.275h171.175c11.275 0 21.525 9.225 21.525 20.5s-10.25 21.525-21.525 21.525h-126.075l124.025 155.8c15.375 18.45 23.575 42.025 23.575 66.625v12.3c0 59.45-48.175 107.625-106.6 107.625zM853.826 430.569c0 59.45-47.15 107.625-106.6 107.625s-106.6-48.175-106.6-107.625c0-11.275 9.225-20.5 21.525-20.5s21.525 9.225 21.525 20.5c0 35.875 28.7 64.575 63.55 64.575s64.575-28.7 64.575-64.575-28.7-63.55-64.575-63.55c-11.275 0-21.525-9.225-21.525-21.525s10.25-21.525 21.525-21.525c35.875 0 64.575-28.7 64.575-63.55s-28.7-64.575-64.575-64.575-63.55 28.7-63.55 64.575c0 11.275-10.25 21.525-21.525 21.525s-21.525-10.25-21.525-21.525c0-59.45 48.175-106.6 106.6-106.6s106.6 47.15 106.6 106.6c0 34.85-16.4 65.6-42.025 85.075 25.625 19.475 42.025 50.225 42.025 85.075z" />
<glyph unicode="&#xe847;" glyph-name="parallax" d="M1025.001 345.494c0 7.175-4.1 14.35-10.25 18.45l-123 69.7 121.975 63.55c7.175 4.1 11.275 11.275 11.275 19.475s-4.1 15.375-11.275 18.45l-490.975 256.25c-6.15 3.075-13.325 3.075-20.5 0l-490.975-256.25c-7.175-3.075-11.275-10.25-11.275-18.45s4.1-15.375 11.275-19.475l121.975-63.55-121.975-69.7c-7.175-4.1-11.275-11.275-11.275-18.45 0-8.2 5.125-15.375 11.275-18.45l121.975-63.55-121.975-69.7c-7.175-4.1-11.275-11.275-11.275-19.475s5.125-15.375 11.275-18.45l490.975-256.25c3.075-2.050 7.175-3.075 10.25-3.075s7.175 1.025 10.25 3.075l490.975 256.25c7.175 3.075 11.275 10.25 11.275 18.45s-4.1 15.375-10.25 18.45l-123 70.725 121.975 63.55c7.175 3.075 11.275 10.25 11.275 18.45zM512.5 748.319l444.85-231.65-444.85-232.675-444.85 232.675 444.85 231.65zM959.401 175.343l-446.9-232.675-446.9 232.675 112.75 64.575 323.9-169.125c3.075-2.050 7.175-3.075 10.25-3.075s7.175 1.025 10.25 3.075l323.9 169.125 112.75-64.575zM512.5 113.843l-446.9 232.675 112.75 63.55 323.9-169.125c3.075-1.025 7.175-2.050 10.25-2.050s7.175 1.025 10.25 2.050l323.9 169.125 112.75-63.55-446.9-232.675z" />
<glyph unicode="&#xe848;" glyph-name="php7" d="M174.25 452.094h-89.175c-9.225 0-18.45-6.15-20.5-16.4l-42.025-170.15c0 0-1.025 0-1.025-1.025l-20.5-85.075c-3.075-11.275 4.1-22.55 15.375-25.625 2.050 0 3.075 0 5.125 0 9.225 0 18.45 6.15 20.5 15.375l17.425 69.7h87.125c49.2 0 92.25 32.8 103.525 80.975l7.175 26.65c6.15 25.625 1.025 52.275-15.375 72.775-16.4 21.525-41 32.8-67.65 32.8zM215.25 356.769l-6.15-26.65c-7.175-28.7-32.8-48.175-62.525-48.175h-76.875l32.8 128.125h71.75c13.325 0 25.625-6.15 33.825-16.4 8.2-11.275 11.275-24.6 7.175-36.9zM686.751 452.094h-89.175c-9.225 0-18.45-6.15-20.5-16.4l-42.025-170.15c0 0-1.025 0-1.025-1.025l-20.5-85.075c-3.075-11.275 4.1-22.55 15.375-25.625 2.050 0 3.075 0 5.125 0 9.225 0 18.45 6.15 20.5 15.375l17.425 69.7h87.125c49.2 0 92.25 32.8 103.525 80.975l7.175 26.65c6.15 25.625 1.025 52.275-15.375 72.775-16.4 21.525-41 32.8-67.65 32.8zM727.751 356.769l-6.15-26.65c-7.175-28.7-32.8-48.175-62.525-48.175h-76.875l32.8 128.125h71.75c13.325 0 25.625-6.15 33.825-16.4 8.2-11.275 11.275-24.6 7.175-36.9zM498.15 419.294c-16.4 21.525-41 32.8-67.65 32.8h-61.5l14.35 59.45c3.075 11.275-4.1 22.55-15.375 25.625s-22.55-4.1-25.625-15.375l-63.55-256.25c-3.075-11.275 3.075-23.575 15.375-25.625 1.025-1.025 3.075-1.025 5.125-1.025 9.225 0 18.45 6.15 20.5 16.4l38.95 154.775h71.75c13.325 0 25.625-6.15 33.825-16.4 8.2-11.275 11.275-24.6 7.175-36.9l-22.55-91.225c-3.075-11.275 4.1-23.575 15.375-25.625 2.050-1.025 4.1-1.025 5.125-1.025 10.25 0 18.45 6.15 21.525 16.4l22.55 91.225c6.15 25.625 1.025 52.275-15.375 72.775zM1022.951 526.919c-4.1 6.15-11.275 11.275-19.475 11.275h-170.15c-12.3 0-21.525-10.25-21.525-21.525s9.225-21.525 21.525-21.525h130.175l-148.625-223.45c-6.15-9.225-4.1-22.55 6.15-29.725 4.1-2.050 8.2-3.075 12.3-3.075 6.15 0 13.325 3.075 17.425 9.225l171.175 256.25c4.1 7.175 4.1 15.375 1.025 22.55z" />
<glyph unicode="&#xe849;" glyph-name="post-list" d="M277.775 836.469h-256.25c-12.3 0-21.525-9.225-21.525-21.525v-256.25c0-11.275 9.225-20.5 21.525-20.5h256.25c11.275 0 21.525 9.225 21.525 20.5v256.25c0 12.3-10.25 21.525-21.525 21.525zM256.25 580.219h-213.2v214.225h213.2v-214.225zM405.9 666.319h597.576c12.3 0 21.525 9.225 21.525 20.5s-9.225 21.525-21.525 21.525h-597.576c-12.3 0-21.525-9.225-21.525-21.525s9.225-20.5 21.525-20.5zM405.9 751.394h256.25c11.275 0 21.525 9.225 21.525 21.525s-10.25 21.525-21.525 21.525h-256.25c-12.3 0-21.525-10.25-21.525-21.525s9.225-21.525 21.525-21.525zM1003.476 623.269h-597.576c-12.3 0-21.525-9.225-21.525-21.525s9.225-21.525 21.525-21.525h597.576c12.3 0 21.525 10.25 21.525 21.525s-9.225 21.525-21.525 21.525zM277.775 495.144h-256.25c-12.3 0-21.525-9.225-21.525-21.525v-256.25c0-11.275 9.225-21.525 21.525-21.525h256.25c11.275 0 21.525 10.25 21.525 21.525v256.25c0 12.3-10.25 21.525-21.525 21.525zM256.25 238.894h-213.2v213.2h213.2v-213.2zM1003.476 367.019h-597.576c-12.3 0-21.525-9.225-21.525-21.525s9.225-21.525 21.525-21.525h597.576c12.3 0 21.525 10.25 21.525 21.525s-9.225 21.525-21.525 21.525zM405.9 410.069h256.25c11.275 0 21.525 9.225 21.525 20.5s-10.25 21.525-21.525 21.525h-256.25c-12.3 0-21.525-9.225-21.525-21.525s9.225-20.5 21.525-20.5zM1003.476 281.944h-597.576c-12.3 0-21.525-10.25-21.525-21.525s9.225-21.525 21.525-21.525h597.576c12.3 0 21.525 9.225 21.525 21.525s-9.225 21.525-21.525 21.525zM277.775 153.818h-256.25c-12.3 0-21.525-10.25-21.525-21.525v-256.25c0-12.3 9.225-21.525 21.525-21.525h256.25c11.275 0 21.525 9.225 21.525 21.525v256.25c0 11.275-10.25 21.525-21.525 21.525zM256.25-103.457h-213.2v214.225h213.2v-214.225zM1003.476 25.693h-597.576c-12.3 0-21.525-10.25-21.525-21.525s9.225-21.525 21.525-21.525h597.576c12.3 0 21.525 9.225 21.525 21.525s-9.225 21.525-21.525 21.525zM405.9 67.718h256.25c11.275 0 21.525 10.25 21.525 21.525s-10.25 21.525-21.525 21.525h-256.25c-12.3 0-21.525-9.225-21.525-21.525s9.225-21.525 21.525-21.525zM1003.476-60.407h-597.576c-12.3 0-21.525-9.225-21.525-21.525s9.225-21.525 21.525-21.525h597.576c12.3 0 21.525 10.25 21.525 21.525s-9.225 21.525-21.525 21.525z" />
<glyph unicode="&#xe850;" glyph-name="post-slider" d="M833.326 623.269h-640.626c-12.3 0-21.525-9.225-21.525-21.525v-512.5c0-11.275 9.225-21.525 21.525-21.525h640.626c11.275 0 20.5 10.25 20.5 21.525v512.5c0 12.3-9.225 21.525-20.5 21.525zM811.801 110.768h-598.601v469.45h598.601v-469.45zM277.775 153.818h171.175c11.275 0 20.5 9.225 20.5 20.5s-9.225 21.525-20.5 21.525h-171.175c-12.3 0-21.525-9.225-21.525-21.525 0-11.275 9.225-20.5 21.525-20.5zM277.775 238.894h469.45c12.3 0 21.525 9.225 21.525 21.525s-9.225 21.525-21.525 21.525h-469.45c-12.3 0-21.525-10.25-21.525-21.525s9.225-21.525 21.525-21.525zM277.775 323.969h469.45c12.3 0 21.525 10.25 21.525 21.525s-9.225 21.525-21.525 21.525h-469.45c-12.3 0-21.525-9.225-21.525-21.525s9.225-21.525 21.525-21.525zM121.975 445.944c-8.2 8.2-21.525 8.2-29.725 0l-86.1-85.075c-8.2-8.2-8.2-22.55 0-30.75l86.1-85.075c4.1-4.1 9.225-6.15 14.35-6.15s11.275 2.050 15.375 6.15c8.2 8.2 8.2 21.525 0 29.725l-70.725 70.725 70.725 70.725c8.2 8.2 8.2 21.525 0 29.725zM1018.851 360.869l-85.075 85.075c-8.2 8.2-22.55 8.2-30.75 0s-8.2-21.525 0-29.725l70.725-70.725-70.725-70.725c-8.2-8.2-8.2-21.525 0-29.725 4.1-4.1 10.25-6.15 15.375-6.15s11.275 2.050 15.375 6.15l85.075 85.075c8.2 8.2 8.2 22.55 0 30.75z" />
<glyph unicode="&#xe851;" glyph-name="post" d="M1022.951 465.419c1.025 3.075 2.050 5.125 2.050 8.2 0 77.9-44.075 159.9-134.275 250.1s-172.2 134.275-250.1 134.275c-3.075 0-5.125-1.025-8.2-2.050-2.050 0-4.1-2.050-6.15-3.075 0-1.025 0-1.025-1.025-1.025v0c0 0 0 0 0 0-54.325-54.325-85.075-133.25-67.65-217.3l-153.75-153.75c-58.425 34.85-189.625 45.1-269.575-34.85-70.725-70.725 30.75-207.050 134.275-313.65l-262.4-263.425c-8.2-8.2-8.2-21.525 0-29.725 4.1-4.1 10.25-6.15 15.375-6.15s11.275 2.050 15.375 6.15l262.4 262.4c82-79.95 181.425-157.85 255.225-157.85 22.55 0 42.025 7.175 58.425 23.575 79.95 79.95 69.7 210.125 34.85 269.575l153.75 153.75c15.375-3.075 31.775-5.125 47.15-5.125 65.6 0 126.075 28.7 170.15 72.775 1.025 1.025 2.050 3.075 2.050 4.1 1.025 1.025 2.050 2.050 2.050 3.075zM979.901 498.219c-51.25 12.3-134.275 57.4-195.775 118.9s-106.6 144.525-118.9 195.775c59.45-9.225 124.025-48.175 195.775-119.925 70.725-70.725 110.7-135.3 118.9-194.75zM583.226-1.982c-36.9-36.9-140.425 20.5-269.575 148.625-128.125 129.15-185.525 232.675-148.625 269.575 66.625 66.625 172.2 52.275 213.2 29.725-10.25-32.8 5.125-87.125 76.875-157.85 58.425-58.425 104.55-79.95 138.375-79.95 7.175 0 13.325 1.025 19.475 3.075 22.55-41 36.9-146.575-29.725-213.2zM604.751 254.269c0 0 0 0-1.025 0 0 0 0 0 0 0-8.2-9.225-50.225-5.125-118.9 63.55s-72.775 110.7-63.55 118.9l150.675 151.7c15.375-35.875 38.95-72.775 74.825-108.65s72.775-59.45 108.65-74.825l-150.675-150.675zM677.526 510.519c-104.55 103.525-95.325 207.050-49.2 276.75 18.45-62.525 67.65-142.475 125.050-200.9 58.425-57.4 138.375-106.6 201.925-125.050-70.725-46.125-174.25-55.35-277.775 49.2z" />
<glyph unicode="&#xe852;" glyph-name="posts-carousel" d="M121.975 424.419c-8.2 8.2-21.525 8.2-29.725 0l-86.1-85.075c-8.2-8.2-8.2-21.525 0-30.75l86.1-85.075c4.1-4.1 9.225-6.15 14.35-6.15s11.275 2.050 15.375 6.15c8.2 8.2 8.2 22.55 0 30.75l-70.725 69.7 70.725 70.725c8.2 8.2 8.2 21.525 0 29.725zM1018.851 339.344l-85.075 85.075c-8.2 8.2-22.55 8.2-30.75 0s-8.2-21.525 0-29.725l70.725-70.725-70.725-69.7c-8.2-9.225-8.2-22.55 0-30.75 4.1-4.1 10.25-6.15 15.375-6.15s11.275 2.050 15.375 6.15l85.075 85.075c8.2 9.225 8.2 22.55 0 30.75zM320.825 516.669h-128.125c-12.3 0-21.525-10.25-21.525-21.525v-128.125c0-12.3 9.225-21.525 21.525-21.525h128.125c11.275 0 20.5 9.225 20.5 21.525v128.125c0 11.275-9.225 21.525-20.5 21.525zM299.3 388.544h-86.1v85.075h86.1v-85.075zM577.076 516.669h-128.125c-12.3 0-21.525-10.25-21.525-21.525v-128.125c0-12.3 9.225-21.525 21.525-21.525h128.125c11.275 0 20.5 9.225 20.5 21.525v128.125c0 11.275-9.225 21.525-20.5 21.525zM555.551 388.544h-86.1v85.075h86.1v-85.075zM833.326 516.669h-128.125c-12.3 0-21.525-10.25-21.525-21.525v-128.125c0-12.3 9.225-21.525 21.525-21.525h128.125c11.275 0 20.5 9.225 20.5 21.525v128.125c0 11.275-9.225 21.525-20.5 21.525zM811.801 388.544h-86.1v85.075h86.1v-85.075zM320.825 302.444h-128.125c-12.3 0-21.525-9.225-21.525-20.5s9.225-21.525 21.525-21.525h128.125c11.275 0 20.5 9.225 20.5 21.525s-9.225 20.5-20.5 20.5zM577.076 302.444h-128.125c-12.3 0-21.525-9.225-21.525-20.5s9.225-21.525 21.525-21.525h128.125c11.275 0 20.5 9.225 20.5 21.525s-9.225 20.5-20.5 20.5zM833.326 302.444h-128.125c-12.3 0-21.525-9.225-21.525-20.5s9.225-21.525 21.525-21.525h128.125c11.275 0 20.5 9.225 20.5 21.525s-9.225 20.5-20.5 20.5zM277.775 217.369h-85.075c-12.3 0-21.525-9.225-21.525-21.525s9.225-21.525 21.525-21.525h85.075c11.275 0 21.525 10.25 21.525 21.525s-10.25 21.525-21.525 21.525zM534.026 217.369h-85.075c-12.3 0-21.525-9.225-21.525-21.525s9.225-21.525 21.525-21.525h85.075c11.275 0 21.525 10.25 21.525 21.525s-10.25 21.525-21.525 21.525zM790.276 217.369h-85.075c-12.3 0-21.525-9.225-21.525-21.525s9.225-21.525 21.525-21.525h85.075c11.275 0 21.525 10.25 21.525 21.525s-10.25 21.525-21.525 21.525z" />
<glyph unicode="&#xe853;" glyph-name="posts-grid" d="M299.3 772.919h-256.25c-12.3 0-21.525-10.25-21.525-21.525v-256.25c0-12.3 9.225-21.525 21.525-21.525h256.25c11.275 0 21.525 9.225 21.525 21.525v256.25c0 11.275-10.25 21.525-21.525 21.525zM277.775 516.669h-213.2v213.2h213.2v-213.2zM256.25 388.544c12.3 0 21.525 9.225 21.525 21.525s-9.225 20.5-21.525 20.5h-171.175c-11.275 0-20.5-9.225-20.5-20.5s9.225-21.525 20.5-21.525h171.175zM640.626 772.919h-256.25c-11.275 0-21.525-10.25-21.525-21.525v-256.25c0-12.3 10.25-21.525 21.525-21.525h256.25c12.3 0 21.525 9.225 21.525 21.525v256.25c0 11.275-9.225 21.525-21.525 21.525zM619.101 516.669h-213.2v213.2h213.2v-213.2zM597.576 388.544c12.3 0 21.525 9.225 21.525 21.525s-9.225 20.5-21.525 20.5h-170.15c-12.3 0-21.525-9.225-21.525-20.5s9.225-21.525 21.525-21.525h170.15zM981.951 772.919h-256.25c-11.275 0-20.5-10.25-20.5-21.525v-256.25c0-12.3 9.225-21.525 20.5-21.525h256.25c12.3 0 21.525 9.225 21.525 21.525v256.25c0 11.275-9.225 21.525-21.525 21.525zM961.451 516.669h-214.225v213.2h214.225v-213.2zM939.926 388.544c11.275 0 21.525 9.225 21.525 21.525s-10.25 20.5-21.525 20.5h-171.175c-11.275 0-21.525-9.225-21.525-20.5s10.25-21.525 21.525-21.525h171.175zM299.3 302.444h-256.25c-12.3 0-21.525-9.225-21.525-20.5v-256.25c0-12.3 9.225-21.525 21.525-21.525h256.25c11.275 0 21.525 9.225 21.525 21.525v256.25c0 11.275-10.25 20.5-21.525 20.5zM277.775 46.193h-213.2v214.225h213.2v-214.225zM256.25-38.882h-171.175c-11.275 0-20.5-9.225-20.5-21.525s9.225-21.525 20.5-21.525h171.175c12.3 0 21.525 10.25 21.525 21.525s-9.225 21.525-21.525 21.525zM640.626 302.444h-256.25c-11.275 0-21.525-9.225-21.525-20.5v-256.25c0-12.3 10.25-21.525 21.525-21.525h256.25c12.3 0 21.525 9.225 21.525 21.525v256.25c0 11.275-9.225 20.5-21.525 20.5zM619.101 46.193h-213.2v214.225h213.2v-214.225zM597.576-38.882h-170.15c-12.3 0-21.525-9.225-21.525-21.525s9.225-21.525 21.525-21.525h170.15c12.3 0 21.525 10.25 21.525 21.525s-9.225 21.525-21.525 21.525zM981.951 302.444h-256.25c-11.275 0-20.5-9.225-20.5-20.5v-256.25c0-12.3 9.225-21.525 20.5-21.525h256.25c12.3 0 21.525 9.225 21.525 21.525v256.25c0 11.275-9.225 20.5-21.525 20.5zM961.451 46.193h-214.225v214.225h214.225v-214.225zM939.926-38.882h-171.175c-11.275 0-21.525-9.225-21.525-21.525s10.25-21.525 21.525-21.525h171.175c11.275 0 21.525 10.25 21.525 21.525s-10.25 21.525-21.525 21.525z" />
<glyph unicode="&#xe854;" glyph-name="posts-group" d="M1003.476 772.919h-256.25c-11.275 0-21.525-10.25-21.525-21.525v-256.25c0-12.3 10.25-21.525 21.525-21.525h256.25c12.3 0 21.525 9.225 21.525 21.525v256.25c0 11.275-9.225 21.525-21.525 21.525zM981.951 516.669h-213.2v213.2h213.2v-213.2zM961.451 388.544c11.275 0 20.5 9.225 20.5 21.525s-9.225 20.5-20.5 20.5h-171.175c-12.3 0-21.525-9.225-21.525-20.5s9.225-21.525 21.525-21.525h171.175zM1003.476 302.444h-256.25c-11.275 0-21.525-9.225-21.525-20.5v-256.25c0-12.3 10.25-21.525 21.525-21.525h256.25c12.3 0 21.525 9.225 21.525 21.525v256.25c0 11.275-9.225 20.5-21.525 20.5zM981.951 46.193h-213.2v214.225h213.2v-214.225zM961.451-38.882h-171.175c-12.3 0-21.525-9.225-21.525-21.525s9.225-21.525 21.525-21.525h171.175c11.275 0 20.5 10.25 20.5 21.525s-9.225 21.525-20.5 21.525zM662.151 772.919h-640.626c-12.3 0-21.525-10.25-21.525-21.525v-811.801c0-11.275 9.225-21.525 21.525-21.525h640.626c11.275 0 21.525 10.25 21.525 21.525v811.801c0 11.275-10.25 21.525-21.525 21.525zM640.626-38.882h-597.576v768.751h597.576v-768.751zM149.65 46.193h256.25c11.275 0 21.525 10.25 21.525 21.525s-10.25 21.525-21.525 21.525h-256.25c-12.3 0-21.525-9.225-21.525-21.525s9.225-21.525 21.525-21.525zM149.65 174.318h384.375c11.275 0 21.525 10.25 21.525 21.525s-10.25 21.525-21.525 21.525h-384.375c-12.3 0-21.525-9.225-21.525-21.525s9.225-21.525 21.525-21.525zM149.65 302.444h384.375c11.275 0 21.525 10.25 21.525 21.525s-10.25 21.525-21.525 21.525h-384.375c-12.3 0-21.525-9.225-21.525-21.525s9.225-21.525 21.525-21.525z" />
<glyph unicode="&#xe855;" glyph-name="posts-justified" d="M21.525 601.744h213.2c12.3 0 21.525 9.225 21.525 21.525v213.2c0 12.3-9.225 21.525-21.525 21.525h-213.2c-12.3 0-21.525-9.225-21.525-21.525v-213.2c0-12.3 9.225-21.525 21.525-21.525zM43.050 814.944h170.15v-170.15h-170.15v170.15zM320.825 601.744h384.375c11.275 0 20.5 9.225 20.5 21.525v213.2c0 12.3-9.225 21.525-20.5 21.525h-384.375c-12.3 0-21.525-9.225-21.525-21.525v-213.2c0-12.3 9.225-21.525 21.525-21.525zM341.325 814.944h342.35v-170.15h-342.35v170.15zM1003.476 857.994h-213.2c-12.3 0-21.525-9.225-21.525-21.525v-213.2c0-12.3 9.225-21.525 21.525-21.525h213.2c12.3 0 21.525 9.225 21.525 21.525v213.2c0 12.3-9.225 21.525-21.525 21.525zM981.951 644.794h-170.15v170.15h170.15v-170.15zM64.575 558.694c-12.3 0-21.525-9.225-21.525-20.5s9.225-21.525 21.525-21.525h128.125c11.275 0 20.5 9.225 20.5 21.525s-9.225 20.5-20.5 20.5h-128.125zM597.576 538.194c0 11.275-9.225 20.5-20.5 20.5h-128.125c-12.3 0-21.525-9.225-21.525-20.5s9.225-21.525 21.525-21.525h128.125c11.275 0 20.5 9.225 20.5 21.525zM961.451 516.669c11.275 0 20.5 9.225 20.5 21.525s-9.225 20.5-20.5 20.5h-128.125c-12.3 0-21.525-9.225-21.525-20.5s9.225-21.525 21.525-21.525h128.125zM490.975 217.369h214.225c11.275 0 20.5 9.225 20.5 21.525v213.2c0 12.3-9.225 21.525-20.5 21.525h-214.225c-11.275 0-21.525-9.225-21.525-21.525v-213.2c0-12.3 10.25-21.525 21.525-21.525zM512.5 430.569h171.175v-170.15h-171.175v170.15zM21.525 217.369h384.375c11.275 0 21.525 9.225 21.525 21.525v213.2c0 12.3-10.25 21.525-21.525 21.525h-384.375c-12.3 0-21.525-9.225-21.525-21.525v-213.2c0-12.3 9.225-21.525 21.525-21.525zM43.050 430.569h341.325v-170.15h-341.325v170.15zM1003.476 473.619h-213.2c-12.3 0-21.525-9.225-21.525-21.525v-213.2c0-12.3 9.225-21.525 21.525-21.525h213.2c12.3 0 21.525 9.225 21.525 21.525v213.2c0 12.3-9.225 21.525-21.525 21.525zM981.951 260.419h-170.15v170.15h170.15v-170.15zM662.151 174.318h-128.125c-12.3 0-21.525-9.225-21.525-20.5s9.225-21.525 21.525-21.525h128.125c11.275 0 21.525 9.225 21.525 21.525s-10.25 20.5-21.525 20.5zM149.65 174.318c-12.3 0-21.525-9.225-21.525-20.5s9.225-21.525 21.525-21.525h128.125c11.275 0 21.525 9.225 21.525 21.525s-10.25 20.5-21.525 20.5h-128.125zM961.451 132.293c11.275 0 20.5 9.225 20.5 21.525s-9.225 20.5-20.5 20.5h-128.125c-12.3 0-21.525-9.225-21.525-20.5s9.225-21.525 21.525-21.525h128.125zM192.7 89.243h-171.175c-12.3 0-21.525-9.225-21.525-21.525v-213.2c0-12.3 9.225-21.525 21.525-21.525h171.175c11.275 0 20.5 9.225 20.5 21.525v213.2c0 12.3-9.225 21.525-20.5 21.525zM171.175-123.957h-128.125v170.15h128.125v-170.15zM619.101 89.243h-341.325c-12.3 0-21.525-9.225-21.525-21.525v-213.2c0-12.3 9.225-21.525 21.525-21.525h341.325c12.3 0 21.525 9.225 21.525 21.525v213.2c0 12.3-9.225 21.525-21.525 21.525zM597.576-123.957h-298.275v170.15h298.275v-170.15zM1003.476 89.243h-298.275c-12.3 0-21.525-9.225-21.525-21.525v-213.2c0-12.3 9.225-21.525 21.525-21.525h298.275c12.3 0 21.525 9.225 21.525 21.525v213.2c0 12.3-9.225 21.525-21.525 21.525zM981.951-123.957h-256.25v170.15h256.25v-170.15z" />
<glyph unicode="&#xe856;" glyph-name="posts-masonry" d="M299.3 857.994h-256.25c-12.3 0-21.525-9.225-21.525-21.525v-256.25c0-11.275 9.225-21.525 21.525-21.525h256.25c11.275 0 21.525 10.25 21.525 21.525v256.25c0 12.3-10.25 21.525-21.525 21.525zM277.775 601.744h-213.2v213.2h213.2v-213.2zM256.25 473.619c12.3 0 21.525 9.225 21.525 21.525s-9.225 21.525-21.525 21.525h-171.175c-11.275 0-20.5-10.25-20.5-21.525s9.225-21.525 20.5-21.525h171.175zM640.626 857.994h-256.25c-11.275 0-21.525-9.225-21.525-21.525v-426.4c0-12.3 10.25-21.525 21.525-21.525h256.25c12.3 0 21.525 9.225 21.525 21.525v426.4c0 12.3-9.225 21.525-21.525 21.525zM619.101 430.569h-213.2v384.375h213.2v-384.375zM597.576 302.444c12.3 0 21.525 10.25 21.525 21.525s-9.225 21.525-21.525 21.525h-170.15c-12.3 0-21.525-9.225-21.525-21.525s9.225-21.525 21.525-21.525h170.15zM981.951 857.994h-256.25c-11.275 0-20.5-9.225-20.5-21.525v-341.325c0-12.3 9.225-21.525 20.5-21.525h256.25c12.3 0 21.525 9.225 21.525 21.525v341.325c0 12.3-9.225 21.525-21.525 21.525zM961.451 516.669h-214.225v298.275h214.225v-298.275zM939.926 388.544c11.275 0 21.525 9.225 21.525 21.525s-10.25 20.5-21.525 20.5h-171.175c-11.275 0-21.525-9.225-21.525-20.5s10.25-21.525 21.525-21.525h171.175zM299.3 388.544h-256.25c-12.3 0-21.525-10.25-21.525-21.525v-256.25c0-12.3 9.225-21.525 21.525-21.525h256.25c11.275 0 21.525 9.225 21.525 21.525v256.25c0 11.275-10.25 21.525-21.525 21.525zM277.775 132.293h-213.2v213.2h213.2v-213.2zM256.25 46.193h-171.175c-11.275 0-20.5-9.225-20.5-20.5s9.225-21.525 20.5-21.525h171.175c12.3 0 21.525 9.225 21.525 21.525s-9.225 20.5-21.525 20.5zM640.626 217.369h-256.25c-11.275 0-21.525-9.225-21.525-21.525v-256.25c0-11.275 10.25-21.525 21.525-21.525h256.25c12.3 0 21.525 10.25 21.525 21.525v256.25c0 12.3-9.225 21.525-21.525 21.525zM619.101-38.882h-213.2v213.2h213.2v-213.2zM597.576-123.957h-170.15c-12.3 0-21.525-10.25-21.525-21.525s9.225-21.525 21.525-21.525h170.15c12.3 0 21.525 9.225 21.525 21.525s-9.225 21.525-21.525 21.525zM981.951 302.444h-256.25c-11.275 0-20.5-9.225-20.5-20.5v-256.25c0-12.3 9.225-21.525 20.5-21.525h256.25c12.3 0 21.525 9.225 21.525 21.525v256.25c0 11.275-9.225 20.5-21.525 20.5zM961.451 46.193h-214.225v214.225h214.225v-214.225zM939.926-38.882h-171.175c-11.275 0-21.525-9.225-21.525-21.525s10.25-21.525 21.525-21.525h171.175c11.275 0 21.525 10.25 21.525 21.525s-10.25 21.525-21.525 21.525z" />
<glyph unicode="&#xe857;" glyph-name="posts-ticker" d="M482.775 794.444c-42.025 0-76.875-18.45-99.425-52.275-2.050-3.075-4.1-7.175-6.15-10.25-1.025-1.025-2.050-2.050-2.050-3.075l-5.125-9.225c0-1.025 0-2.050-1.025-3.075l-129.15-270.6-175.275-111.725c-41-25.625-64.575-69.7-64.575-116.85v-7.175c0-43.050 19.475-82 52.275-108.65 24.6-20.5 55.35-29.725 86.1-29.725 21.525 0 42.025 5.125 61.5 14.35l85.075-15.375 41-83.025c14.35-28.7 39.975-49.2 70.725-58.425l109.675-31.775c2.050 0 4.1-1.025 6.15-1.025 4.1 0 8.2 1.025 11.275 3.075 5.125 4.1 8.2 8.2 9.225 14.35l4.1 20.5c11.275 56.375-19.475 110.7-72.775 129.15l-47.15 128.125 272.65-36.9c1.025 0 1.025 0 2.050 0l10.25-1.025c1.025 0 3.075 0 4.1 0 2.050 0 4.1 0 6.15 0 43.050 0 76.875 17.425 100.45 51.25 42.025 60.475 39.975 164-3.075 276.75-66.625 175.275-210.125 312.625-326.975 312.625zM78.925 135.368c-22.55 17.425-35.875 45.1-35.875 74.825v7.175c0 32.8 16.4 62.525 44.075 80.975l148.625 94.3c5.125-68.675 25.625-139.4 100.45-178.35l-149.65-87.125c-33.825-19.475-76.875-16.4-107.625 8.2zM443.825 25.693c35.875-9.225 58.425-44.075 52.275-79.95l-88.15 24.6c-19.475 5.125-34.85 18.45-44.075 36.9l-46.125 91.225c-3.075 6.15-8.2 10.25-14.35 12.3l-45.1 8.2 114.8 67.65 55.35-147.6c2.050-6.15 8.2-11.275 15.375-13.325zM389.5 237.869c-96.35 28.7-111.725 106.6-111.725 188.6l76.875 160.925c4.1-37.925 14.35-78.925 30.75-120.95 39.975-104.55 107.625-194.75 179.375-251.125l-175.275 22.55zM777.976 229.669c-15.375-22.55-36.9-33.825-65.6-33.825-5.125 0-10.25 1.025-16.4 2.050h-3.075c-93.275 15.375-212.175 139.4-267.525 283.925-32.8 85.075-38.95 165.025-17.425 216.275v1.025c3.075 7.175 6.15 13.325 10.25 19.475 15.375 21.525 36.9 32.8 64.575 32.8 96.35 0 227.55-131.2 287-284.95 37.925-98.4 41-188.6 8.2-236.775zM586.301 576.119c-32.8 9.225-67.65 4.1-97.375-14.35-9.225-6.15-13.325-18.45-7.175-28.7s19.475-13.325 29.725-7.175c19.475 11.275 42.025 14.35 64.575 9.225s41-19.475 52.275-38.95c12.3-19.475 15.375-42.025 10.25-64.575-6.15-22.55-19.475-41-38.95-52.275-10.25-6.15-13.325-19.475-8.2-29.725 4.1-6.15 11.275-10.25 18.45-10.25 4.1 0 8.2 1.025 11.275 3.075 29.725 17.425 50.225 45.1 58.425 78.925 8.2 32.8 3.075 67.65-14.35 96.35-17.425 29.725-46.125 50.225-78.925 58.425zM812.826 573.044c3.075-8.2 11.275-14.35 20.5-14.35 2.050 0 4.1 1.025 7.175 2.050l171.175 63.55c10.25 4.1 16.4 16.4 12.3 27.675s-16.4 16.4-27.675 12.3l-171.175-63.55c-11.275-4.1-16.4-16.4-12.3-27.675zM790.276 666.319c5.125 0 11.275 2.050 15.375 6.15l85.075 85.075c8.2 8.2 8.2 21.525 0 29.725s-21.525 9.225-30.75 0l-85.075-85.075c-8.2-8.2-8.2-21.525 0-29.725 4.1-4.1 10.25-6.15 15.375-6.15zM1003.476 495.144h-128.125c-11.275 0-21.525-9.225-21.525-21.525s10.25-21.525 21.525-21.525h128.125c12.3 0 21.525 10.25 21.525 21.525s-9.225 21.525-21.525 21.525z" />
<glyph unicode="&#xe858;" glyph-name="price-list" d="M662.151-38.882h-534.026v597.576h234.725c12.3 0 21.525 10.25 21.525 21.525v234.725h427.425v-576.051c0-12.3 9.225-21.525 21.525-21.525s20.5 9.225 20.5 21.525v597.576c0 12.3-9.225 21.525-20.5 21.525h-470.475c-3.075 0-5.125-1.025-8.2-2.050-1.025 0-1.025-1.025-2.050-1.025-2.050-1.025-3.075-2.050-5.125-3.075l-256.25-256.25c0-1.025-1.025-2.050-2.050-3.075-1.025-2.050-1.025-2.050-2.050-4.1s-2.050-5.125-2.050-8.2v-640.626c0-11.275 10.25-21.525 21.525-21.525h555.551c11.275 0 21.525 10.25 21.525 21.525s-10.25 21.525-21.525 21.525zM158.875 601.744l182.45 183.475v-183.475h-182.45zM939.926-49.132c0 48.175-52.275 64.575-86.1 70.725v65.6c24.6-5.125 42.025-17.425 43.050-28.7s12.3-19.475 23.575-19.475c11.275 2.050 20.5 12.3 19.475 23.575-4.1 34.85-38.95 61.5-86.1 67.65v23.575c0 11.275-9.225 20.5-20.5 20.5s-21.525-9.225-21.525-20.5v-23.575c-49.2-6.15-86.1-35.875-86.1-72.775 0-49.2 52.275-64.575 86.1-71.75v-64.575c-24.6 4.1-42.025 16.4-43.050 27.675-1.025 12.3-12.3 20.5-23.575 19.475s-20.5-11.275-18.45-23.575c3.075-33.825 37.925-61.5 85.075-67.65v-22.55c0-12.3 9.225-21.525 21.525-21.525s20.5 9.225 20.5 21.525v22.55c50.225 7.175 86.1 36.9 86.1 73.8zM768.751 57.468c0 11.275 17.425 24.6 43.050 29.725v-57.4c-34.85 8.2-43.050 19.475-43.050 27.675zM853.826-79.882v58.425c34.85-8.2 43.050-19.475 43.050-27.675 0-12.3-17.425-25.625-43.050-30.75zM277.775 473.619c-35.875 0-64.575-28.7-64.575-63.55s28.7-64.575 64.575-64.575 63.55 28.7 63.55 64.575-28.7 63.55-63.55 63.55zM277.775 388.544c-12.3 0-21.525 9.225-21.525 21.525s9.225 20.5 21.525 20.5 21.525-9.225 21.525-20.5-10.25-21.525-21.525-21.525zM277.775 302.444c-35.875 0-64.575-28.7-64.575-63.55s28.7-64.575 64.575-64.575 63.55 28.7 63.55 64.575-28.7 63.55-63.55 63.55zM277.775 217.369c-12.3 0-21.525 9.225-21.525 21.525s9.225 21.525 21.525 21.525 21.525-10.25 21.525-21.525-10.25-21.525-21.525-21.525zM277.775 132.293c-35.875 0-64.575-28.7-64.575-64.575s28.7-63.55 64.575-63.55 63.55 28.7 63.55 63.55-28.7 64.575-63.55 64.575zM277.775 46.193c-12.3 0-21.525 10.25-21.525 21.525s9.225 21.525 21.525 21.525 21.525-9.225 21.525-21.525-10.25-21.525-21.525-21.525zM448.95 430.569c-12.3 0-21.525-9.225-21.525-20.5s9.225-21.525 21.525-21.525h256.25c11.275 0 20.5 9.225 20.5 21.525s-9.225 20.5-20.5 20.5h-256.25zM705.201 260.419h-256.25c-12.3 0-21.525-10.25-21.525-21.525s9.225-21.525 21.525-21.525h256.25c11.275 0 20.5 9.225 20.5 21.525s-9.225 21.525-20.5 21.525zM662.151 89.243h-213.2c-12.3 0-21.525-9.225-21.525-21.525s9.225-21.525 21.525-21.525h213.2c11.275 0 21.525 10.25 21.525 21.525s-10.25 21.525-21.525 21.525z" />
<glyph unicode="&#xe859;" glyph-name="price-table" d="M981.951 666.319h-191.675v63.55c0 12.3-9.225 21.525-21.525 21.525h-512.5c-11.275 0-21.525-9.225-21.525-21.525v-63.55h-191.675c-12.3 0-21.525-10.25-21.525-21.525v-598.601c0-11.275 9.225-20.5 21.525-20.5h191.675v-64.575c0-12.3 10.25-21.525 21.525-21.525h512.5c12.3 0 21.525 9.225 21.525 21.525v64.575h191.675c12.3 0 21.525 9.225 21.525 20.5v598.601c0 11.275-9.225 21.525-21.525 21.525zM961.451 623.269v-85.075h-171.175v85.075h171.175zM277.775 708.344h469.45v-128.125h-469.45v128.125zM234.725 623.269v-85.075h-170.15v85.075h170.15zM64.575 67.718v427.425h170.15v-427.425h-170.15zM747.226-17.357h-469.45v555.551h469.45v-555.551zM790.276 67.718v427.425h171.175v-427.425h-171.175zM534.026 276.819v87.125c23.575-5.125 41-20.5 43.050-37.925 1.025-11.275 11.275-19.475 22.55-19.475 12.3 1.025 20.5 12.3 19.475 23.575-3.075 39.975-38.95 70.725-85.075 77.9v22.55c0 12.3-9.225 21.525-21.525 21.525s-21.525-9.225-21.525-21.525v-22.55c-48.175-8.2-85.075-43.050-85.075-84.050 0-39.975 27.675-66.625 85.075-80.975v-87.125c-23.575 6.15-41 20.5-43.050 37.925 0 11.275-12.3 20.5-22.55 19.475-11.275-1.025-20.5-11.275-19.475-23.575 3.075-38.95 38.95-69.7 85.075-76.875v-23.575c0-11.275 10.25-21.525 21.525-21.525s21.525 10.25 21.525 21.525v23.575c48.175 7.175 85.075 42.025 85.075 83.025 0 39.975-27.675 67.65-85.075 80.975zM448.95 323.969c0 18.45 17.425 33.825 42.025 39.975v-76.875c-28.7 8.2-42.025 20.5-42.025 36.9zM534.026 155.868v76.875c28.7-8.2 43.050-19.475 43.050-36.9s-18.45-33.825-43.050-39.975z" />
<glyph unicode="&#xe860;" glyph-name="radio" d="M149.65 836.469c-83.025 0-149.65-66.625-149.65-149.65s66.625-148.625 149.65-148.625 149.65 66.625 149.65 148.625-67.65 149.65-149.65 149.65zM149.65 580.219c-59.45 0-106.6 48.175-106.6 106.6s47.15 107.625 106.6 107.625 106.6-48.175 106.6-107.625-48.175-106.6-106.6-106.6zM149.65 495.144c-83.025 0-149.65-67.65-149.65-149.65s66.625-149.65 149.65-149.65 149.65 67.65 149.65 149.65-67.65 149.65-149.65 149.65zM149.65 238.894c-59.45 0-106.6 48.175-106.6 106.6s47.15 106.6 106.6 106.6 106.6-48.175 106.6-106.6-48.175-106.6-106.6-106.6zM149.65 153.818c-83.025 0-149.65-67.65-149.65-149.65s66.625-149.65 149.65-149.65 149.65 66.625 149.65 149.65-67.65 149.65-149.65 149.65zM149.65-103.457c-59.45 0-106.6 48.175-106.6 107.625s47.15 106.6 106.6 106.6 106.6-48.175 106.6-106.6-48.175-107.625-106.6-107.625zM405.9 666.319h597.576c12.3 0 21.525 9.225 21.525 20.5s-9.225 21.525-21.525 21.525h-597.576c-12.3 0-21.525-9.225-21.525-21.525s9.225-20.5 21.525-20.5zM1003.476 367.019h-597.576c-12.3 0-21.525-9.225-21.525-21.525s9.225-21.525 21.525-21.525h597.576c12.3 0 21.525 10.25 21.525 21.525s-9.225 21.525-21.525 21.525zM1003.476 25.693h-597.576c-12.3 0-21.525-10.25-21.525-21.525s9.225-21.525 21.525-21.525h597.576c12.3 0 21.525 9.225 21.525 21.525s-9.225 21.525-21.525 21.525zM149.65 410.069c-35.875 0-64.575-28.7-64.575-64.575s28.7-63.55 64.575-63.55 63.55 28.7 63.55 63.55-28.7 64.575-63.55 64.575zM149.65 323.969c-12.3 0-21.525 10.25-21.525 21.525s9.225 21.525 21.525 21.525 21.525-9.225 21.525-21.525-10.25-21.525-21.525-21.525z" />
<glyph unicode="&#xe861;" glyph-name="rtl" d="M234.725 302.444c12.3 0 21.525 10.25 21.525 21.525v106.6h95.325l78.925-117.875c4.1-6.15 11.275-10.25 18.45-10.25 4.1 0 8.2 2.050 11.275 4.1 10.25 6.15 12.3 19.475 6.15 29.725l-67.65 101.475c41 14.35 70.725 53.3 70.725 100.45v42.025c0 59.45-47.15 106.6-106.6 106.6h-128.125c-11.275 0-21.525-9.225-21.525-20.5v-342.35c0-11.275 10.25-21.525 21.525-21.525zM256.25 644.794h106.6c35.875 0 64.575-28.7 64.575-64.575v-42.025c0-35.875-28.7-64.575-64.575-64.575h-106.6v171.175zM490.975 644.794h106.6v-320.825c0-11.275 10.25-21.525 21.525-21.525s21.525 10.25 21.525 21.525v320.825h106.6c12.3 0 21.525 9.225 21.525 21.525s-9.225 20.5-21.525 20.5h-256.25c-11.275 0-21.525-9.225-21.525-20.5s10.25-21.525 21.525-21.525zM833.326 302.444h170.15c12.3 0 21.525 10.25 21.525 21.525s-9.225 21.525-21.525 21.525h-149.65v320.825c0 11.275-9.225 20.5-20.5 20.5s-21.525-9.225-21.525-20.5v-342.35c0-11.275 9.225-21.525 21.525-21.525zM1003.476 174.318h-930.701l92.25 92.25c8.2 8.2 8.2 21.525 0 29.725s-22.55 8.2-30.75 0l-128.125-128.125c0 0 0 0 0 0-2.050-2.050-3.075-4.1-4.1-6.15-3.075-6.15-3.075-11.275 0-16.4 0-2.050 1.025-3.075 2.050-4.1s1.025-2.050 2.050-3.075l128.125-128.125c4.1-4.1 10.25-6.15 15.375-6.15s11.275 2.050 15.375 6.15c8.2 8.2 8.2 21.525 0 29.725l-92.25 92.25h930.701c12.3 0 21.525 9.225 21.525 21.525s-9.225 20.5-21.525 20.5z" />
<glyph unicode="&#xe862;" glyph-name="scroll" d="M597.576 857.994h-170.15c-153.75 0-277.775-124.025-277.775-277.775v-384.375c0-199.875 162.975-362.85 362.85-362.85s362.85 162.975 362.85 362.85v384.375c0 153.75-124.025 277.775-277.775 277.775zM512.5 686.819c12.3 0 21.525-9.225 21.525-20.5v-128.125c0-12.3-9.225-21.525-21.525-21.525s-21.525 9.225-21.525 21.525v128.125c0 11.275 10.25 20.5 21.525 20.5zM833.326 195.844c0-176.3-144.525-319.8-320.825-319.8s-319.8 143.5-319.8 319.8v384.375c0 130.175 104.55 234.725 234.725 234.725h63.55v-89.175c-24.6-8.2-42.025-31.775-42.025-59.45v-128.125c0-35.875 28.7-64.575 63.55-64.575s64.575 28.7 64.575 64.575v128.125c0 27.675-18.45 51.25-43.050 59.45v89.175h63.55c130.175 0 235.75-104.55 235.75-234.725v-384.375z" />
<glyph unicode="&#xe863;" glyph-name="search" d="M1018.851-131.132l-311.6 312.625c64.575 71.75 104.55 167.075 104.55 270.6 0 223.45-182.45 405.9-405.9 405.9s-405.9-182.45-405.9-405.9 182.45-405.9 405.9-405.9c104.55 0 198.85 39.975 270.6 104.55l311.6-311.6c5.125-4.1 10.25-6.15 15.375-6.15s11.275 2.050 15.375 6.15c8.2 8.2 8.2 21.525 0 29.725zM43.050 452.094c0 200.9 162.975 362.85 362.85 362.85s362.85-161.95 362.85-362.85-162.975-362.85-362.85-362.85-362.85 162.975-362.85 362.85z" />
<glyph unicode="&#xe864;" glyph-name="selec" d="M961.451 666.319h-896.876c-35.875 0-64.575-28.7-64.575-64.575v-512.5c0-34.85 28.7-63.55 64.575-63.55h896.876c34.85 0 63.55 28.7 63.55 63.55v512.5c0 35.875-28.7 64.575-63.55 64.575zM981.951 89.243c0-11.275-9.225-21.525-20.5-21.525h-896.876c-12.3 0-21.525 10.25-21.525 21.525v512.5c0 12.3 9.225 21.525 21.525 21.525h896.876c11.275 0 20.5-9.225 20.5-21.525v-512.5zM859.976 402.894l-154.775-154.775-155.8 154.775c-9.225 9.225-22.55 9.225-30.75 0s-8.2-21.525 0-29.725l171.175-171.175c4.1-4.1 9.225-6.15 15.375-6.15s10.25 2.050 14.35 6.15l171.175 171.175c8.2 8.2 8.2 21.525 0 29.725-8.2 9.225-21.525 9.225-30.75 0z" />
<glyph unicode="&#xe865;" glyph-name="share" d="M853.826 174.318c-58.425 0-110.7-29.725-141.45-75.85l-381.3 190.65c6.15 17.425 10.25 36.9 10.25 56.375s-4.1 38.95-10.25 56.375l381.3 190.65c30.75-46.125 83.025-75.85 141.45-75.85 94.3 0 171.175 75.85 171.175 170.15s-76.875 171.175-171.175 171.175-170.15-76.875-170.15-171.175c0-19.475 4.1-37.925 10.25-56.375l-381.3-189.625c-30.75 45.1-83.025 75.85-141.45 75.85-94.3 0-171.175-76.875-171.175-171.175s76.875-171.175 171.175-171.175c58.425 0 110.7 30.75 141.45 76.875l381.3-190.65c-6.15-18.45-10.25-36.9-10.25-56.375 0-94.3 75.85-171.175 170.15-171.175s171.175 76.875 171.175 171.175-76.875 170.15-171.175 170.15zM853.826 814.944c70.725 0 128.125-57.4 128.125-128.125s-57.4-128.125-128.125-128.125c-49.2 0-92.25 29.725-113.775 70.725 0 1.025 0 1.025 0 1.025s0 0 0 0c-8.2 17.425-14.35 35.875-14.35 56.375 0 70.725 57.4 128.125 128.125 128.125zM171.175 217.369c-70.725 0-128.125 57.4-128.125 128.125s57.4 128.125 128.125 128.125c49.2 0 92.25-28.7 113.775-70.725 0 0 0 0 0 0s0 0 0 0c9.225-17.425 14.35-36.9 14.35-57.4s-5.125-38.95-14.35-56.375c0 0 0 0 0-1.025 0 0 0 0 0 0-21.525-42.025-64.575-70.725-113.775-70.725zM853.826-123.957c-70.725 0-128.125 57.4-128.125 128.125 0 20.5 6.15 38.95 14.35 56.375 0 0 0 0 0 0s0 0 0 1.025c21.525 41 64.575 70.725 113.775 70.725 70.725 0 128.125-57.4 128.125-128.125s-57.4-128.125-128.125-128.125z" />
<glyph unicode="&#xe866;" glyph-name="sidebar" d="M1003.476 857.994h-981.951c-12.3 0-21.525-9.225-21.525-21.525v-981.951c0-12.3 9.225-21.525 21.525-21.525h981.951c12.3 0 21.525 9.225 21.525 21.525v981.951c0 12.3-9.225 21.525-21.525 21.525zM981.951 814.944v-170.15h-938.901v170.15h938.901zM43.050 601.744h554.526v-725.701h-554.526v725.701zM640.626-123.957v725.701h341.325v-725.701h-341.325zM875.351 4.168h-128.125c-11.275 0-21.525-10.25-21.525-21.525s10.25-21.525 21.525-21.525h128.125c12.3 0 21.525 9.225 21.525 21.525s-9.225 21.525-21.525 21.525zM875.351 132.293h-128.125c-11.275 0-21.525-10.25-21.525-21.525s10.25-21.525 21.525-21.525h128.125c12.3 0 21.525 9.225 21.525 21.525s-9.225 21.525-21.525 21.525zM875.351 260.419h-128.125c-11.275 0-21.525-10.25-21.525-21.525s10.25-21.525 21.525-21.525h128.125c12.3 0 21.525 9.225 21.525 21.525s-9.225 21.525-21.525 21.525zM875.351 388.544h-128.125c-11.275 0-21.525-10.25-21.525-21.525s10.25-21.525 21.525-21.525h128.125c12.3 0 21.525 9.225 21.525 21.525s-9.225 21.525-21.525 21.525zM875.351 516.669h-128.125c-11.275 0-21.525-10.25-21.525-21.525s10.25-21.525 21.525-21.525h128.125c12.3 0 21.525 9.225 21.525 21.525s-9.225 21.525-21.525 21.525z" />
</font>
</defs>
</svg>
